Advertise here

Sandy Wexler (2017) Webdl 1080p Latino

1.022 vistas
1 estrella2 estrellas3 estrellas4 estrellas5 estrellas (1 votos, promedio: 1,00 de 5)
Cargando…

Información de Sandy Wexler (2017) Webdl 1080p Latino

Sandy Wexler latino

Datos de la película

  • Calidad: WEBDL
  • Audio: Español Latino AC3 2.0 Netflix - Ingles AC3 5.1 iTunes
  • Subtitulos: Español Latino SRT - Ingles SRT
  • Resolución: 1920x1036p
  • Formato: MKV
  • Codec: H.264
  • Encoder:
  • Mediainfo: Clic para Mostrar Datos Ver
  • Sandy Weler 2017 WEBDL 1080p Latino.mkv
    Format                      : Matroska
    Format version              : Version 4 / Version 2
    File size                   : 3.62 GiB
    Duration                    : 2 h 10 min
    Overall bit rate            : 3 954 kb/s
    Movie name                  : DPeliculasHDMega.ORG
    Encoded date                : UTC 2017-04-19 00:46:04
    Writing application         : mkvmerge v10.0.0 ('To Drown In You') 64bit
    Writing library             : libebml v1.3.4 + libmatroska v1.4.5

    Video
    ID                          : 1
    Format                      : AVC
    Format/Info                 : Advanced Video Codec
    Format profile              : High@L4.1
    Format settings, CABAC      : Yes
    Format settings, ReFrames   : 4 frames
    Codec ID                    : V_MPEG4/ISO/AVC
    Duration                    : 2 h 6 min
    Bit rate                    : 3 500 kb/s
    Width                       : 1 920 pixels
    Height                      : 1 036 pixels
    Display aspect ratio        : 1.85:1
    Frame rate mode             : Constant
    Frame rate                  : 23.976 (24000/1001) FPS
    Color space                 : YUV
    Chroma subsampling          : 4:2:0
    Bit depth                   : 8 bits
    Scan type                   : Progressive
    Bits/(Pixel*Frame)          : 0.073
    Stream size                 : 3.09 GiB (85%)
    Writing library             : x264 core 148 r2708 86b7198
    Encoding settings           : cabac=1 / ref=3 / deblock=1:0:0 / analyse=0x3:0x113 / me=hex / subme=7 / psy=1 / psy_rd=1.00:0.00 / mixed_ref=1 / me_range=16 / chroma_me=1 / trellis=1 / 8x8dct=1 / cqm=0 / deadzone=21,11 / fast_pskip=1 / chroma_qp_offset=-2 / threads=12 / lookahead_threads=2 / sliced_threads=0 / nr=0 / decimate=1 / interlaced=0 / bluray_compat=0 / constrained_intra=0 / bframes=3 / b_pyramid=2 / b_adapt=1 / b_bias=0 / direct=1 / weightb=1 / open_gop=0 / weightp=2 / keyint=240 / keyint_min=24 / scenecut=40 / intra_refresh=0 / rc_lookahead=40 / rc=abr / mbtree=1 / bitrate=3500 / ratetol=1.0 / qcomp=0.60 / qpmin=0 / qpmax=69 / qpstep=4 / vbv_maxrate=62500 / vbv_bufsize=78125 / nal_hrd=none / filler=0 / ip_ratio=1.40 / aq=1:1.00
    Default                     : Yes
    Forced                      : No
    Color range                 : Limited
    Color primaries             : BT.709
    Transfer characteristics    : BT.709
    Matrix coefficients         : BT.709

    Audio #1
    ID                          : 2
    Format                      : AC-3
    Format/Info                 : Audio Coding 3
    Format settings, Endianness : Big
    Codec ID                    : A_AC3
    Duration                    : 2 h 10 min
    Bit rate mode               : Constant
    Bit rate                    : 192 kb/s
    Channel(s)                  : 2 channels
    Channel positions           : Front: L R
    Sampling rate               : 48.0 kHz
    Frame rate                  : 31.250 FPS (1536 spf)
    Bit depth                   : 16 bits
    Compression mode            : Lossy
    Delay relative to video     : 504 ms
    Stream size                 : 180 MiB (5%)
    Language                    : Spanish
    Service kind                : Complete Main
    Default                     : Yes
    Forced                      : No

    Audio #2
    ID                          : 3
    Format                      : AC-3
    Format/Info                 : Audio Coding 3
    Format settings, Endianness : Big
    Codec ID                    : A_AC3
    Duration                    : 2 h 10 min
    Bit rate mode               : Constant
    Bit rate                    : 384 kb/s
    Channel(s)                  : 6 channels
    Channel positions           : Front: L C R, Side: L R, LFE
    Sampling rate               : 48.0 kHz
    Frame rate                  : 31.250 FPS (1536 spf)
    Bit depth                   : 16 bits
    Compression mode            : Lossy
    Stream size                 : 360 MiB (10%)
    Language                    : English
    Service kind                : Complete Main
    Default                     : No
    Forced                      : No

    Text #1
    ID                          : 4
    Format                      : UTF-8
    Codec ID                    : S_TEXT/UTF8
    Codec ID/Info               : UTF-8 Plain Text
    Duration                    : 2 h 6 min
    Bit rate                    : 82 b/s
    Count of elements           : 2142
    Stream size                 : 76.0 KiB (0%)
    Language                    : Spanish
    Default                     : No
    Forced                      : No

    Text #2
    ID                          : 5
    Format                      : UTF-8
    Codec ID                    : S_TEXT/UTF8
    Codec ID/Info               : UTF-8 Plain Text
    Duration                    : 10 s 100 ms
    Bit rate                    : 91 b/s
    Count of elements           : 1
    Stream size                 : 115 Bytes (0%)
    Language                    : Spanish
    Default                     : Yes
    Forced                      : No

  • Peso: 3.62 GB

Sinopsis

Descargar Sandy Wexler 1080p Latino, es una pelicula de (Adam Sandler) es un gestor de talento que trabaja en Los Ángeles en los años 90, y que es diligencia excéntrico grupo de clientes fuera de la serie. Su único compromiso puesto a prueba cuando se enamora de su nuevo cliente, Courtney Clarke (Premio de la Academia y ganador del premio Grammy Jennifer Hudson), un cantante con talento que descubre un parque de atracciones. La película original de Netflix también por Kevin James (True Memorias de una asesina Internacional), Terry Crews, último señor de las bestias, Lamorne Morris , Nick Swardson , Rob Schneider, un fin de semana ups), Jane Seymour (los intrusos de la boda), Grammy, Aaron Neville, Arsenio hall y más. La película está dirigida por Steven Brill. Paul Sado Dan Bulla y Adam Sandler escribió el guión. Happy Madison Productions y Adam Sandler Allen Covert son los productores. Barry Bernardi y Tim Herlihy son los productores ejecutivos.

Ficha técnica

  • Titulo original: Sandy Wexler
  • Fecha de lanzamiento: 14-04-2017 (United States of America)
  • Director: Steven Brill
  • Género: Comedia
  • Puntuación: 1.0 1 votos
  • Duración:
    2h 10m

Video trailer de la película

Enlaces de descarga

Descargar
Descargar Sandy Wexler (2017) Webdl 1080p Latino

dpeliculas

Aportes de DPeliculasHDmega la pass es:dpeliculashdmega.org Aportes de CinemaniaHD la pass es:cinemaniahdd.com
Guardado en : Comedia

Películas relacionadas

  • La hora del cambio (2017) 1080p Latino

    2017
    La hora del cambio (2017) 1080p Latino

    0.0 1 h 32 min 2017

    Los vecinos del pequeño pueblo siciliano de Pietrammare viven acostumbrados al caos que conlleva “saltarse...

    Director: Valentino Picone

    Género: Comedia

    Actores: Vincenzo Ferrera

  • La LEGO Ninjago pelicula (2017) Full 1080p Latino

    2017
    La LEGO Ninjago pelicula (2017) Full 1080p Latino

    4.0 1h 40m 2017

    Una tierra lejana amenazada por la oscuridad. En este lugar llamado Ninjago, las fuerzas del bien y del...

    Director: Paul Fisher

    Género: Acción

    Actores: Zach Woods

  • El Regalo Prometido (1996) Full 1080p Latino

    1996
    El Regalo Prometido (1996) Full 1080p Latino

    0.0 1 h 29 min 1996

    Howard Langston es un atareado hombre de negocios que llega tarde a la clase de karate de su hijo Jamie....

    Director: Brian Levant

    Género: Comedia

    Actores: Sinbad

  • Escalofrios (2015) Full 1080p Latino

    2015
    Escalofrios (2015) Full 1080p Latino

    4.0 1 h 43 min 2015

    El adolescente Zach Cooper se muda sin muchas ganas con su familia desde Nueva York al pequeño pueblo...

    Director: Rob Letterman

    Género: Aventura

    Actores: Vivian Kyle

  • El Camino Christmas (2017) Netflix WEBDL 1080p Latino

    2017
    El Camino Christmas (2017) Netflix WEBDL 1080p Latino

    0.0 0h 0m 2017

    En Nochebuena, un grupo de desconocidos que queda atrapado en una licorería durante un supuesto asalto,...

    Director: David E. Talbert

    Género: Comedia

    Actores: Yimmy Yim

Comentarios 0