Advertise here

Scott Pilgrim vs. the World (2010) Full 1080p Latino

750 vistas
1 estrella2 estrellas3 estrellas4 estrellas5 estrellas (1 votos, promedio: 5,00 de 5)
Cargando…

Información de Scott Pilgrim vs. the World (2010) Full 1080p Latino

Datos de la película

  • Calidad: Full 1080p
  • Audio: Español Latino DTS 5.1 BLURAY - Ingles DTS 5.1 BLURAY
  • Subtitulos: Español Latino SRT
  • Resolución: 1920X1080
  • Formato: MKV
  • Codec: H.264
  • Encoder: Dpelis
  • Mediainfo: Clic para Mostrar Datos Ver
  • Format                                   : Matroska
    Format version                           : Version 4 / Version 2
    File size                                : 6.88 GiB
    Duration                                 : 1 h 52 min
    Overall bit rate                         : 8 769 kb/s
    Movie name                               : dpeliculashdmega.org
    Encoded date                             : UTC 2017-11-20 06:24:04 / UTC 2017-11-20T02:31:51Z
    Writing application                      : mkvmerge v15.0.0 ('Duel with the Devil') 64-bit
    Writing library                          : libebml v1.3.5 + libmatroska v1.4.5 / Lavf57.7.2

    Video
    ID                                       : 1
    Format                                   : AVC
    Format/Info                              : Advanced Video Codec
    Format profile                           : High@L4.1
    Format settings                          : CABAC / 4 Ref Frames
    Format settings, CABAC                   : Yes
    Format settings, RefFrames               : 4 frames
    Codec ID                                 : V_MPEG4/ISO/AVC
    Duration                                 : 1 h 52 min
    Bit rate                                 : 6 318 kb/s
    Width                                    : 1 920 pixels
    Height                                   : 1 080 pixels
    Display aspect ratio                     : 16:9
    Frame rate mode                          : Constant
    Frame rate                               : 23.976 (24000/1001) FPS
    Color space                              : YUV
    Chroma subsampling                       : 4:2:0
    Bit depth                                : 8 bits
    Scan type                                : Progressive
    Bits/(Pixel*Frame)                       : 0.127
    Stream size                              : 4.96 GiB (72%)
    Title                                    : Scott Pilgrim vs. the World (2010) Full 1080p Latino
    Writing library                          : x264 core 148 r2708 86b7198
    Encoding settings                        : cabac=1 / ref=4 / deblock=1:0:0 / analyse=0x3:0x133 / me=esa / subme=10 / psy=1 / psy_rd=1.00:0.00 / mixed_ref=1 / me_range=24 / chroma_me=1 / trellis=2 / 8x8dct=1 / cqm=0 / deadzone=21,11 / fast_pskip=1 / chroma_qp_offset=-2 / threads=34 / lookahead_threads=5 / sliced_threads=0 / nr=0 / decimate=1 / interlaced=0 / bluray_compat=0 / constrained_intra=0 / bframes=8 / b_pyramid=2 / b_adapt=2 / b_bias=0 / direct=3 / weightb=1 / open_gop=0 / weightp=2 / keyint=240 / keyint_min=24 / scenecut=40 / intra_refresh=0 / rc_lookahead=60 / rc=crf / mbtree=1 / crf=20.0 / qcomp=0.60 / qpmin=0 / qpmax=69 / qpstep=4 / vbv_maxrate=62500 / vbv_bufsize=78125 / crf_max=0.0 / nal_hrd=none / filler=0 / ip_ratio=1.40 / aq=1:1.00
    Language                                 : English
    Default                                  : Yes
    Forced                                   : No
    Color range                              : Limited
    Color primaries                          : BT.709
    Transfer characteristics                 : BT.709
    Matrix coefficients                      : BT.709
    Statistics Tags Issue                    : mkvmerge v15.0.0 ('Duel with the Devil') 64-bit 2017-11-20 06:24:04 / mkvmerge v15.0.0 ('Duel with the Devil') 64-bit 2017-11-20 06:24:04 / UTC 2017-11-20T02:31:51Z
    FromStats_BitRate                        : 6489212
    FromStats_Duration                       : 01:52:23.737000000
    FromStats_FrameCount                     : 161688
    FromStats_StreamSize                     : 5470192802

    Audio #1
    ID                                       : 2
    Format                                   : DTS
    Format/Info                              : Digital Theater Systems
    Mode                                     : 16
    Format settings, Endianness              : Big
    Codec ID                                 : A_DTS
    Duration                                 : 1 h 52 min
    Bit rate mode                            : Constant
    Bit rate                                 : 768 kb/s
    Channel(s)                               : 6 channels
    Channel positions                        : Front: L C R, Side: L R, LFE
    Sampling rate                            : 48.0 kHz
    Frame rate                               : 93.750 FPS (512 SPF)
    Bit depth                                : 24 bits
    Compression mode                         : Lossy
    Stream size                              : 617 MiB (9%)
    Title                                    : Latino-DTS
    Language                                 : Spanish
    Default                                  : Yes
    Forced                                   : No
    Statistics Tags Issue                    : mkvmerge v15.0.0 ('Duel with the Devil') 64-bit 2017-11-20 06:24:04 / mkvmerge v15.0.0 ('Duel with the Devil') 64-bit 2017-11-20 06:24:04 / UTC 2017-11-20T02:31:51Z
    FromStats_BitRate                        : 767999
    FromStats_Duration                       : 01:52:23.787000000
    FromStats_FrameCount                     : 632230
    FromStats_StreamSize                     : 647403520

    Audio #2
    ID                                       : 3
    Format                                   : DTS
    Format/Info                              : Digital Theater Systems
    Mode                                     : 16
    Format settings, Endianness              : Big
    Codec ID                                 : A_DTS
    Duration                                 : 1 h 52 min
    Bit rate mode                            : Constant
    Bit rate                                 : 1 509 kb/s
    Channel(s)                               : 6 channels
    Channel positions                        : Front: L C R, Side: L R, LFE
    Sampling rate                            : 48.0 kHz
    Frame rate                               : 93.750 FPS (512 SPF)
    Bit depth                                : 24 bits
    Compression mode                         : Lossy
    Stream size                              : 1.18 GiB (17%)
    Title                                    : Ingles-DTS
    Language                                 : English
    Default                                  : No
    Forced                                   : No
    Statistics Tags Issue                    : mkvmerge v15.0.0 ('Duel with the Devil') 64-bit 2017-11-20 06:24:04 / mkvmerge v15.0.0 ('Duel with the Devil') 64-bit 2017-11-20 06:24:04 / UTC 2017-11-20T02:31:51Z
    FromStats_BitRate                        : 1509000
    FromStats_Duration                       : 01:52:23.776000000
    FromStats_FrameCount                     : 632229
    FromStats_StreamSize                     : 1272044748

    Text #1
    ID                                       : 4
    Format                                   : UTF-8
    Codec ID                                 : S_TEXT/UTF8
    Codec ID/Info                            : UTF-8 Plain Text
    Title                                    : Forzados
    Language                                 : Spanish
    Default                                  : Yes
    Forced                                   : No
    Statistics Tags Issue                    : mkvmerge v15.0.0 ('Duel with the Devil') 64-bit 2017-11-20 06:24:04 / mkvmerge v15.0.0 ('Duel with the Devil') 64-bit 2017-11-20 06:24:04 / UTC 2017-11-20T02:31:51Z
    FromStats_BitRate                        : 2
    FromStats_Duration                       : 01:51:05.909000000
    FromStats_FrameCount                     : 68
    FromStats_StreamSize                     : 1732

    Text #2
    ID                                       : 5
    Format                                   : UTF-8
    Codec ID                                 : S_TEXT/UTF8
    Codec ID/Info                            : UTF-8 Plain Text
    Title                                    : Español
    Language                                 : Spanish
    Default                                  : No
    Forced                                   : No
    Statistics Tags Issue                    : mkvmerge v15.0.0 ('Duel with the Devil') 64-bit 2017-11-20 06:24:04 / mkvmerge v15.0.0 ('Duel with the Devil') 64-bit 2017-11-20 06:24:04 / UTC 2017-11-20T02:31:51Z
    FromStats_BitRate                        : 71
    FromStats_Duration                       : 01:48:11.613000000
    FromStats_FrameCount                     : 1988
    FromStats_StreamSize                     : 58153

    Menu
    00:00:00.000                             : :Chapter 1
    00:07:24.402                             : :Chapter 2
    00:13:14.669                             : :Chapter 3
    00:20:01.242                             : :Chapter 4
    00:26:01.143                             : :Chapter 5
    00:30:50.223                             : :Chapter 6
    00:38:52.747                             : :Chapter 7
    00:45:25.681                             : :Chapter 8
    00:50:18.516                             : :Chapter 9
    00:53:55.149                             : :Chapter 10
    00:59:15.927                             : :Chapter 11
    01:03:10.328                             : :Chapter 12
    01:08:05.206                             : :Chapter 13
    01:14:23.751                             : :Chapter 14
    01:20:19.023                             : :Chapter 15
    01:27:47.554                             : :Chapter 16
    01:30:43.772                             : :Chapter 17
    01:39:14.198                             : :Chapter 18
    01:40:49.794                             : :Chapter 19
    01:48:34.466                             : :Chapter 20

  • Peso: 6.88 GiB

Sinopsis

Les presentamos al encantador y desempleado Scott Pilgrim (Michael Cera), bajista de un grupo “garage” de lo más corriente, los Sex Bob-omb. Este joven de 22 años acaba de conocer a la chica de sus sueños… la de verdad. ¿Cuál es el problema a la hora de conquistar a Ramona Flowers (Mary Elizabeth Winstead)? Los siete ex de la chica están decididos a matar a Scott.Scott Pilgrim nunca ha tenido problemas para echarse novia. Las dificultades aparecen cuando quiere cortar. Mientras intenta deshacerse de la última conquista, Ramona irrumpe en su vida, pero no tarda en descubrir que la mujer deseada arrastra un bagaje nada tranquilizador: sus ex controlan su vida amorosa y están dispuestos a hacer lo que sea para eliminar la competencia.

Ficha técnica

Video trailer de la película

Enlaces de descarga

Descargar Scott Pilgrim vs. the World (2010) Full 1080p Latino
Descargar

dpeliculas

Aportes de DPeliculasHDmega la pass es:dpeliculashdmega.org Aportes de CinemaniaHD la pass es:cinemaniahdd.com

Películas relacionadas

  • El francotirador (1978) Full 1080p Latino

    1978
    El francotirador (1978) Full 1080p Latino

    0.0 3h 2m 1978

    Descargar Pelicula El francotirador 1978 hd latino Unos amigos de un pequeño pueblo industrial acuden...

    Director: Michael Cimino

    Género: Drama

    Actores: Vitoon Winwitoon

  • Star Trek: En la oscuridad (2013) Full 1080p Latino

    2013
    Star Trek: En la oscuridad (2013) Full 1080p Latino

    5.0 2 h 12 min 2013

    Cuando a la tripulación de la nave Enterprise le ordenan que regrese a casa, en la Tierra se enfrentan...

    Director: Vanessa Meier

    Género: Acción

    Actores: Zoe Saldana

  • Arrow (2017) Temporada 6 WEBDL 1080p Latino

    2012
    Arrow (2017) Temporada 6 WEBDL 1080p Latino

    2.3 0h 42m 2012

    Con el futuro del equipo pendiendo de un hilo, Arrow le dio una nueva definición a la frase “explotar...

    Director: Marc Guggenheim

    Género: Acción

    Actores: Willa Holland

  • Dulce venganza (2016) 1080p Latino

    2016
    Dulce venganza (2016) 1080p Latino

    2.0 1 h 34 min 2016

    Un asesino de élite llamado Frank, tras ser traicionado por unos gángsters, es enviado a una cirujana...

    Director: Walter Hill

    Género: Acción

    Actores: Zak Santiago

Comentarios 5
  • slash - 09 diciembre, 2017

    Muchas gracias.

  • David - 20 noviembre, 2017

    Los amo, son los mejores mil gracias por este aportazo 😀

  • Aldair Jesus - 20 noviembre, 2017

    Por que no tiene los subs PGS? 🙁

    • Dpelis2 pelis2

      Autor
      - 20 noviembre, 2017

      El BD no traida PGS en español.

  • Aldair Jesus - 20 noviembre, 2017

    Ya les dije que los amo? :v