Advertise here

Shimmer Lake (2017) WEBDL Latino

742 vistas
1 estrella2 estrellas3 estrellas4 estrellas5 estrellas (Ninguna valoración todavía)
Cargando…

Información de Shimmer Lake (2017) WEBDL Latino

Datos de la película

  • Calidad: 1080p
  • Audio: Español Latino AC3 5.1 iTunes - Ingles AC3 5.1 iTunes
  • Subtitulos: Español Latino SRT - Ingles SRT
  • Resolución: 1920x800p
  • Formato: MKV
  • Codec: H.264
  • Encoder: Dpelis
  • Mediainfo: Clic para Mostrar Datos Ver
  • Shimmer.lake.2017.nf.1080p.Latino.mkv
    Format                      : Matroska
    Format version              : Version 4 / Version 2
    File size                   : 3.42 GiB
    Duration                    : 1 h 26 min
    Overall bit rate            : 5 655 kb/s
    Encoded date                : UTC 2017-06-09 19:26:43 / UTC 2017-06-09T18:05:28Z
    Writing application         : mkvmerge v10.0.0 ('To Drown In You') 64bit
    Writing library             : libebml v1.3.4 + libmatroska v1.4.5 / Lavf57.7.2

    Video
    ID                          : 1
    Format                      : AVC
    Format/Info                 : Advanced Video Codec
    Format profile              : High@L4.1
    Format settings, CABAC      : Yes
    Format settings, ReFrames   : 4 frames
    Codec ID                    : V_MPEG4/ISO/AVC
    Duration                    : 1 h 26 min
    Bit rate                    : 4 711 kb/s
    Nominal bit rate            : 5 000 kb/s
    Width                       : 1 920 pixels
    Height                      : 800 pixels
    Display aspect ratio        : 2.40:1
    Frame rate mode             : Constant
    Frame rate                  : 23.976 (24000/1001) FPS
    Color space                 : YUV
    Chroma subsampling          : 4:2:0
    Bit depth                   : 8 bits
    Scan type                   : Progressive
    Bits/(Pixel*Frame)          : 0.128
    Stream size                 : 2.85 GiB (83%)
    Writing library             : x264 core 148 r2708 86b7198
    Encoding settings           : cabac=1 / ref=3 / deblock=1:0:0 / analyse=0x3:0x113 / me=hex / subme=7 / psy=1 / psy_rd=1.00:0.00 / mixed_ref=1 / me_range=16 / chroma_me=1 / trellis=1 / 8x8dct=1 / cqm=0 / deadzone=21,11 / fast_pskip=1 / chroma_qp_offset=-2 / threads=12 / lookahead_threads=2 / sliced_threads=0 / nr=0 / decimate=1 / interlaced=0 / bluray_compat=0 / constrained_intra=0 / bframes=3 / b_pyramid=2 / b_adapt=1 / b_bias=0 / direct=1 / weightb=1 / open_gop=0 / weightp=2 / keyint=240 / keyint_min=24 / scenecut=40 / intra_refresh=0 / rc_lookahead=40 / rc=abr / mbtree=1 / bitrate=5000 / ratetol=1.0 / qcomp=0.60 / qpmin=0 / qpmax=69 / qpstep=4 / vbv_maxrate=62500 / vbv_bufsize=78125 / nal_hrd=none / filler=0 / ip_ratio=1.40 / aq=1:1.00
    Default                     : Yes
    Forced                      : No
    Color range                 : Limited
    Color primaries             : BT.709
    Transfer characteristics    : BT.709
    Matrix coefficients         : BT.709
    Statistics Tags Issue       : mkvmerge v10.0.0 ('To Drown In You') 64bit 2017-06-09 19:26:43 / mkvmerge v10.0.0 ('To Drown In You') 64bit 2017-06-09 19:26:43 / UTC 2017-06-09T18:05:28Z
    FromStats_BitRate           : 4821266
    FromStats_Duration          : 01:26:37.317000000
    FromStats_FrameCount        : 124611
    FromStats_StreamSize        : 3132206278

    Audio #1
    ID                          : 2
    Format                      : AC-3
    Format/Info                 : Audio Coding 3
    Format settings, Endianness : Big
    Codec ID                    : A_AC3
    Duration                    : 1 h 26 min
    Bit rate mode               : Constant
    Bit rate                    : 448 kb/s
    Channel(s)                  : 6 channels
    Channel positions           : Front: L C R, Side: L R, LFE
    Sampling rate               : 48.0 kHz
    Frame rate                  : 31.250 FPS (1536 spf)
    Bit depth                   : 16 bits
    Compression mode            : Lossy
    Delay relative to video     : -5 ms
    Stream size                 : 278 MiB (8%)
    Language                    : Spanish
    Service kind                : Complete Main
    Default                     : No
    Forced                      : No
    Statistics Tags Issue       : mkvmerge v10.0.0 ('To Drown In You') 64bit 2017-06-09 19:26:43 / mkvmerge v10.0.0 ('To Drown In You') 64bit 2017-06-09 19:26:43 / UTC 2017-06-09T18:05:28Z
    FromStats_BitRate           : 448000
    FromStats_Duration          : 01:26:37.856000000
    FromStats_FrameCount        : 162433
    FromStats_StreamSize        : 291079936

    Audio #2
    ID                          : 3
    Format                      : AC-3
    Format/Info                 : Audio Coding 3
    Format settings, Endianness : Big
    Codec ID                    : A_AC3
    Duration                    : 1 h 26 min
    Bit rate mode               : Constant
    Bit rate                    : 384 kb/s
    Channel(s)                  : 6 channels
    Channel positions           : Front: L C R, Side: L R, LFE
    Sampling rate               : 48.0 kHz
    Frame rate                  : 31.250 FPS (1536 spf)
    Bit depth                   : 16 bits
    Compression mode            : Lossy
    Delay relative to video     : -5 ms
    Stream size                 : 238 MiB (7%)
    Title                       : Surround
    Language                    : English
    Service kind                : Complete Main
    Default                     : Yes
    Forced                      : No
    Statistics Tags Issue       : mkvmerge v10.0.0 ('To Drown In You') 64bit 2017-06-09 19:26:43 / mkvmerge v10.0.0 ('To Drown In You') 64bit 2017-06-09 19:26:43 / UTC 2017-06-09T18:05:28Z
    FromStats_BitRate           : 384000
    FromStats_Duration          : 01:26:37.824000000
    FromStats_FrameCount        : 162432
    FromStats_StreamSize        : 249495552

    Text #1
    ID                          : 4
    Format                      : UTF-8
    Codec ID                    : S_TEXT/UTF8
    Codec ID/Info               : UTF-8 Plain Text
    Language                    : Spanish
    Default                     : Yes
    Forced                      : No
    Statistics Tags Issue       : mkvmerge v10.0.0 ('To Drown In You') 64bit 2017-06-09 19:26:43 / mkvmerge v10.0.0 ('To Drown In You') 64bit 2017-06-09 19:26:43 / UTC 2017-06-09T18:05:28Z
    FromStats_BitRate           : 66
    FromStats_Duration          : 01:21:23.754000000
    FromStats_FrameCount        : 1005
    FromStats_StreamSize        : 40406

    Text #2
    ID                          : 5
    Format                      : UTF-8
    Codec ID                    : S_TEXT/UTF8
    Codec ID/Info               : UTF-8 Plain Text
    Language                    : English
    Default                     : No
    Forced                      : No
    Statistics Tags Issue       : mkvmerge v10.0.0 ('To Drown In You') 64bit 2017-06-09 19:26:43 / mkvmerge v10.0.0 ('To Drown In You') 64bit 2017-06-09 19:26:43 / UTC 2017-06-09T18:05:28Z
    FromStats_BitRate           : 74
    FromStats_Duration          : 01:19:45.030000000
    FromStats_FrameCount        : 1172
    FromStats_StreamSize        : 44719

  • Peso: 3.42 GB

Sinopsis

Descargar Shimmer Lake 1080p Latino una pelicula de Netflix,Un robo fallido a un banco, secretos de pueblo y algunos asesinatos. La impactante verdad sólo puede contarse al revés.

Ficha técnica

  • Titulo original: Shimmer Lake
  • Fecha de lanzamiento: 09-06-2017
  • Director: Oren Uziel
  • Género: Sin categoría
  • Puntuación: 0.0 0 votos
  • Duración:
    1h 26m

Video trailer de la película

Enlaces de descarga

Descargar
Descargar Shimmer Lake (2017) WEBDL Latino

dpeliculas

Aportes de DPeliculasHDmega la pass es:dpeliculashdmega.org Aportes de CinemaniaHD la pass es:cinemaniahdd.com
Guardado en : Sin categoría

Películas relacionadas

  • Vive por mí (2016) 1080p Latino

    2017
    Vive por mí (2016) 1080p Latino

    5.0 1 h 45 min 2017

    Una noche, tras la notificación de un muerto por accidente de tráfico, tres personas reciben la misma...

    Director: Chema de la Peña

    Género: Sin categoría

    Actores: Tiaré Scanda

  • The Good Catholic (2017) WEBDL 1080p Latino

    2017
    The Good Catholic (2017) WEBDL 1080p Latino

    2.0 1h 36m 2017

    Daniel amaba su trabajo como sacerdote de un pequeño pueblo más que nada. Entonces conoció a Jane....

    Director: Paul Shoulberg

    Género: Sin categoría

    Actores: Zachary Spicer

  • Juego de Tronos (2016) Temporada 6 Full Latino

    2011/03/17
    Juego de Tronos (2016) Temporada 6 Full Latino

    5.0 60 Min. 2011/03/17

    Descargar gratis Juego de Tronos (2016) Temporada 6 Full Latino Sinopsis capitulo 1: Jon Nieve está...

    Director: David Benioff

    Género: Drama

    Actores: Sophie Turner

  • dolores argentina 1080p

    Dolores (2016) WEBDL Latino

    2016
    Dolores (2016) WEBDL Latino

    0.0 1h 39m 2016

    Descargar Peliculas Dolores WEBDL Latino, es una pelicula Argentina. Dolores cuenta la historia de una...

    Director: Juan Dickinson

    Género: Sin categoría

    Actores: Roberto Birindelli

Comentarios 0