Advertise here

Siete deseos (2017) UNRATED Full 1080p Latino

2.693 vistas
1 estrella2 estrellas3 estrellas4 estrellas5 estrellas (1 votos, promedio: 5,00 de 5)
Cargando…

Información de Siete deseos (2017) UNRATED Full 1080p Latino

Datos de la película

  • Calidad: Full 1080p
  • Audio: Español Latino DTS 5.1 BLURAY - Ingles DTS 5.1 BLURAY
  • Subtitulos: Español Latino PGS - Ingles PGS
  • Resolución: 1920x1080
  • Formato: MKV
  • Codec: H.264
  • Encoder: Dpelis
  • Mediainfo: Clic para Mostrar Datos Ver
  • Wish Upon (2017) Full 1080p Latino.mkv
    Format                      : Matroska
    Format version              : Version 4 / Version 2
    File size                   : 2.90 GiB
    Duration                    : 1 h 30 min
    Overall bit rate            : 4 564 kb/s
    Movie name                  : DPeliculasHDMega.ORG
    Encoded date                : UTC 2017-09-30 00:41:13 / UTC 2017-09-29T08:34:17Z
    Writing application         : mkvmerge v10.0.0 ('To Drown In You') 64bit
    Writing library             : libebml v1.3.4 + libmatroska v1.4.5 / Lavf57.7.2

    Video
    ID                          : 1
    Format                      : AVC
    Format/Info                 : Advanced Video Codec
    Format profile              : High@L4.1
    Format settings, CABAC      : Yes
    Format settings, RefFrames  : 4 frames
    Codec ID                    : V_MPEG4/ISO/AVC
    Duration                    : 1 h 30 min
    Bit rate                    : 2 937 kb/s
    Width                       : 1 920 pixels
    Height                      : 1 080 pixels
    Display aspect ratio        : 16:9
    Frame rate mode             : Constant
    Frame rate                  : 23.976 (24000/1001) FPS
    Color space                 : YUV
    Chroma subsampling          : 4:2:0
    Bit depth                   : 8 bits
    Scan type                   : Progressive
    Bits/(Pixel*Frame)          : 0.059
    Stream size                 : 1.87 GiB (64%)
    Writing library             : x264 core 148 r2708 86b7198
    Encoding settings           : cabac=1 / ref=4 / deblock=1:0:0 / analyse=0x3:0x133 / me=esa / subme=10 / psy=1 / psy_rd=1.00:0.00 / mixed_ref=1 / me_range=24 / chroma_me=1 / trellis=2 / 8x8dct=1 / cqm=0 / deadzone=21,11 / fast_pskip=1 / chroma_qp_offset=-2 / threads=12 / lookahead_threads=2 / sliced_threads=0 / nr=0 / decimate=1 / interlaced=0 / bluray_compat=0 / constrained_intra=0 / bframes=8 / b_pyramid=2 / b_adapt=2 / b_bias=0 / direct=3 / weightb=1 / open_gop=0 / weightp=2 / keyint=240 / keyint_min=24 / scenecut=40 / intra_refresh=0 / rc_lookahead=60 / rc=crf / mbtree=1 / crf=20.0 / qcomp=0.60 / qpmin=0 / qpmax=69 / qpstep=4 / vbv_maxrate=62500 / vbv_bufsize=78125 / crf_max=0.0 / nal_hrd=none / filler=0 / ip_ratio=1.40 / aq=1:1.00
    Default                     : Yes
    Forced                      : No
    Color range                 : Limited
    Color primaries             : BT.709
    Transfer characteristics    : BT.709
    Matrix coefficients         : BT.709
    Statistics Tags Issue       : mkvmerge v10.0.0 ('To Drown In You') 64bit 2017-09-30 00:41:13 / mkvmerge v10.0.0 ('To Drown In You') 64bit 2017-09-30 00:41:13 / UTC 2017-09-29T08:34:17Z
    FromStats_BitRate           : 2993966
    FromStats_Duration          : 01:30:54.408000000
    FromStats_FrameCount        : 130775
    FromStats_StreamSize        : 2041289267

    Audio #1
    ID                          : 2
    Format                      : DTS
    Format/Info                 : Digital Theater Systems
    Mode                        : 16
    Format settings, Endianness : Big
    Codec ID                    : A_DTS
    Duration                    : 1 h 30 min
    Bit rate mode               : Constant
    Bit rate                    : 768 kb/s
    Channel(s)                  : 6 channels
    Channel positions           : Front: L C R, Side: L R, LFE
    Sampling rate               : 48.0 kHz
    Frame rate                  : 93.750 FPS (512 SPF)
    Bit depth                   : 24 bits
    Compression mode            : Lossy
    Stream size                 : 499 MiB (17%)
    Title                       : Surround
    Language                    : Spanish
    Default                     : Yes
    Forced                      : No
    Statistics Tags Issue       : mkvmerge v10.0.0 ('To Drown In You') 64bit 2017-09-30 00:41:13 / mkvmerge v10.0.0 ('To Drown In You') 64bit 2017-09-30 00:41:13 / UTC 2017-09-29T08:34:17Z
    FromStats_BitRate           : 767999
    FromStats_Duration          : 01:30:54.454000000
    FromStats_FrameCount        : 511355
    FromStats_StreamSize        : 523627520

    Audio #2
    ID                          : 3
    Format                      : DTS
    Format/Info                 : Digital Theater Systems
    Mode                        : 16
    Format settings, Endianness : Big
    Codec ID                    : A_DTS
    Duration                    : 1 h 30 min
    Bit rate mode               : Constant
    Bit rate                    : 768 kb/s
    Channel(s)                  : 6 channels
    Channel positions           : Front: L C R, Side: L R, LFE
    Sampling rate               : 48.0 kHz
    Frame rate                  : 93.750 FPS (512 SPF)
    Bit depth                   : 24 bits
    Compression mode            : Lossy
    Stream size                 : 499 MiB (17%)
    Title                       : Surround
    Language                    : Spanish
    Default                     : No
    Forced                      : No
    Statistics Tags Issue       : mkvmerge v10.0.0 ('To Drown In You') 64bit 2017-09-30 00:41:13 / mkvmerge v10.0.0 ('To Drown In You') 64bit 2017-09-30 00:41:13 / UTC 2017-09-29T08:34:17Z
    FromStats_BitRate           : 767999
    FromStats_Duration          : 01:30:54.454000000
    FromStats_FrameCount        : 511355
    FromStats_StreamSize        : 523627520

    Text #1
    ID                          : 4
    Format                      : PGS
    Muxing mode                 : zlib
    Codec ID                    : S_HDMV/PGS
    Codec ID/Info               : Picture based subtitle format used on BDs/HD-DVDs
    Language                    : Spanish
    Default                     : No
    Forced                      : No
    Statistics Tags Issue       : mkvmerge v10.0.0 ('To Drown In You') 64bit 2017-09-30 00:41:13 / mkvmerge v10.0.0 ('To Drown In You') 64bit 2017-09-30 00:41:13 / UTC 2017-09-29T08:34:17Z
    FromStats_BitRate           : 13390
    FromStats_Duration          : 01:24:48.137000000
    FromStats_FrameCount        : 1804
    FromStats_StreamSize        : 8516277

    Text #2
    ID                          : 5
    Format                      : PGS
    Muxing mode                 : zlib
    Codec ID                    : S_HDMV/PGS
    Codec ID/Info               : Picture based subtitle format used on BDs/HD-DVDs
    Language                    : English
    Default                     : No
    Forced                      : No
    Statistics Tags Issue       : mkvmerge v10.0.0 ('To Drown In You') 64bit 2017-09-30 00:41:13 / mkvmerge v10.0.0 ('To Drown In You') 64bit 2017-09-30 00:41:13 / UTC 2017-09-29T08:34:17Z
    FromStats_BitRate           : 19054
    FromStats_Duration          : 01:28:06.836000000
    FromStats_FrameCount        : 2808
    FromStats_StreamSize        : 12592195

    Menu
    00:00:00.000                : :Chapter 1
    00:05:43.677                : :Chapter 2
    00:11:56.090                : :Chapter 3
    00:15:53.536                : :Chapter 4
    00:21:14.607                : :Chapter 5
    00:25:54.011                : :Chapter 6
    00:31:05.655                : :Chapter 7
    00:35:30.837                : :Chapter 8
    00:41:01.876                : :Chapter 9
    00:47:38.898                : :Chapter 10
    00:52:02.828                : :Chapter 11
    00:56:02.234                : :Chapter 12
    01:03:27.304                : :Chapter 13
    01:13:19.729                : :Chapter 14
    01:18:24.450                : :Chapter 15
    01:25:21.617                : :Chapter 16

  • Peso: 2.90 GB

Sinopsis

Claire, una adolescente de 16 años, acaba de descubrir una caja con poderes mágicos. El misterioso objeto puede concederle a la joven hasta siete deseos, con los que podría alcanzar la vida que siempre ha querido. Pero no será tan fácil, pues el poderoso objeto oculta un terrible secreto y ella tendrá que enfrentarse a las sangrientas consecuencias de sus peticiones.

Siete deseos es una película de terror dirigida por John R. Leonetti (La máscara, Insidious, Expediente Warren: The Conjuring) y escrita por Barbara Marshall (Terra Nova, Viral), que está protagonizada por la actriz Joey King, que también ha participado en Independence Day: Contraataque y la serie Fargo. Completan su reparto nombres como Ryan Phillippe (Banderas de nuestros padres), Shannon Purser (la serie Stranger Things), Ki Hong Lee (El corredor del laberinto: Las pruebas), Elisabeth Röhm (La gran estafa americana) y Josephine Langford (Pulse).

SOLO AUDIO INGLES DTS 5.1

Ficha técnica

Video trailer de la película

Enlaces de descarga

Descargar Siete deseos (2017) UNRATED Full 1080p Latino
Descargar

dpeliculas

Aportes de DPeliculasHDmega la pass es:dpeliculashdmega.org Aportes de CinemaniaHD la pass es:cinemaniahdd.com

Películas relacionadas

  • Dulce venganza (2016) 1080p Latino

    2016
    Dulce venganza (2016) 1080p Latino

    2.0 1 h 34 min 2016

    Un asesino de élite llamado Frank, tras ser traicionado por unos gángsters, es enviado a una cirujana...

    Director: Walter Hill

    Género: Acción

    Actores: Zak Santiago

  • Vikingos Temporada 5 (2017) WEB-DL Amazon 1080p Latino

    2017
    Vikingos Temporada 5 (2017) WEB-DL Amazon 1080p Latino

    0.0 0h 44m 2017

    Sigue las aventuras de Ragnar Lothbrok, el héroe más grande de su época. La serie narra las sagas...

    Director: Michael Hirst

    Género: Action & Adventure

    Actores: Moe Dunford

  • La LEGO Ninjago pelicula (2017) Full 1080p Latino

    2017
    La LEGO Ninjago pelicula (2017) Full 1080p Latino

    4.0 1h 40m 2017

    Una tierra lejana amenazada por la oscuridad. En este lugar llamado Ninjago, las fuerzas del bien y del...

    Director: Paul Fisher

    Género: Acción

    Actores: Zach Woods

  • La jugada maestra (2015) 1080p Latino

    2015
    La jugada maestra (2015) 1080p Latino

    0.0 1h 54m 2015

    "Pawn Sacrifice" (El sacrificio del peón) narra la historia de la preparación y del legendario enfrentamiento...

    Director: Edward Zwick

    Género: Drama

    Actores: Zach Fraser

Comentarios 11
  • jk2018 - 26 octubre, 2017

    que te paso no incluyiste en la pelicula el ingles.. que pasa ahora ya postean por parte las peliculas.. o que paso..? DFisculpa mi ignorancia..

    • dpelis

      Administrador
      - 27 octubre, 2017

      se dejo el audio en la descripcion esta link audio ingles

  • Eduardo Garza - 01 octubre, 2017

    Pudieran subir el audio en ingles DTS 5.1 aqui? o avisen cuando la reparen para volver a bajarla 🙂
    Saludos!

    • dpelis

      Administrador
      - 01 octubre, 2017

      solo audio ingles

  • Jairo - 30 septiembre, 2017

    AYUDA!! disculpen me sale ERROR: SU CUENTA SE ENCUENTRA DESACTIVADA. No puedo descargar ni una pelicula.

    • dpelis

      Administrador
      - 01 octubre, 2017

      cual es el usuario?

      • Jairo - 01 octubre, 2017

        el usuario lo tengo con este correo j4iro141293@gmail.com pero a mi correo no me ha llegado nada como una verificacion para la activacion, por favor ayudenme, ya sacaron piratas del caribe y quiero descargarla.

        • dpelis

          Administrador
          - 01 octubre, 2017

          necesito el usuario. sino se acuerda, entre a la pagina en modo incognito oh borre cache para que se borre el cache. y listo, pero no es necesairo registrar para descargar

          • Jairo - 06 octubre, 2017

            Buenas, borre cache y todo funciona como antes gracias, disculpen subiran las peliculas de jeepers creepers? seria bueno, en lo personal solo vi la primero y seria bueno como para entenderle a la ultima que va salir.

            • dpelis

              Administrador
              - 06 octubre, 2017

              si, se agregaran

              • Jairo - 09 octubre, 2017

                Gracias, y gracias por subir las peliculas a google Drive, no tiene limite de descarga y cualquiera puede descargarlo sin problemas, mantenganse asi, son la mejor pagina de descarga.