Advertise here

Sin City (Ciudad del pecado) (2005) EXTENDED Full 1080p Latino

531 vistas
1 estrella2 estrellas3 estrellas4 estrellas5 estrellas (Ninguna valoración todavía)
Cargando…

Información de Sin City (Ciudad del pecado) (2005) EXTENDED Full 1080p Latino

Datos de la película

  • Calidad: Full 1080p
  • Audio: Español Latino AC3 5.1 BLURAY - Ingles DTS 5.1 BLURAY
  • Subtitulos: Español Latino PGS - Ingles PGS
  • Resolución: 1920X1080
  • Formato: MKV
  • Codec: H.264
  • Encoder: Dracarys
  • Mediainfo: Clic para Mostrar Datos Ver
  • Format                                   : Matroska
    Format version                           : Version 4 / Version 2
    File size                                : 9.84 GiB
    Duration                                 : 2 h 21 min
    Overall bit rate                         : 9 937 kb/s
    Movie name                               : cinemaniahdd.com
    Encoded date                             : UTC 2017-12-05 06:35:52 / UTC 2017-12-04T14:30:07Z
    Writing application                      : mkvmerge v15.0.0 ('Duel with the Devil') 64-bit
    Writing library                          : libebml v1.3.5 + libmatroska v1.4.5 / Lavf57.7.2

    Video
    ID                                       : 1
    Format                                   : AVC
    Format/Info                              : Advanced Video Codec
    Format profile                           : High@L4.1
    Format settings                          : CABAC / 4 Ref Frames
    Format settings, CABAC                   : Yes
    Format settings, RefFrames               : 4 frames
    Codec ID                                 : V_MPEG4/ISO/AVC
    Duration                                 : 2 h 21 min
    Bit rate                                 : 7 591 kb/s
    Width                                    : 1 920 pixels
    Height                                   : 1 080 pixels
    Display aspect ratio                     : 16:9
    Frame rate mode                          : Constant
    Frame rate                               : 23.976 (24000/1001) FPS
    Color space                              : YUV
    Chroma subsampling                       : 4:2:0
    Bit depth                                : 8 bits
    Scan type                                : Progressive
    Bits/(Pixel*Frame)                       : 0.153
    Stream size                              : 7.52 GiB (76%)
    Title                                    : Sin City (Ciudad del pecado) (2005) EXTENDED Full 1080p Latino
    Writing library                          : x264 core 148 r2708 86b7198
    Encoding settings                        : cabac=1 / ref=4 / deblock=1:0:0 / analyse=0x3:0x133 / me=esa / subme=10 / psy=1 / psy_rd=1.00:0.00 / mixed_ref=1 / me_range=24 / chroma_me=1 / trellis=2 / 8x8dct=1 / cqm=0 / deadzone=21,11 / fast_pskip=1 / chroma_qp_offset=-2 / threads=34 / lookahead_threads=5 / sliced_threads=0 / nr=0 / decimate=1 / interlaced=0 / bluray_compat=0 / constrained_intra=0 / bframes=8 / b_pyramid=2 / b_adapt=2 / b_bias=0 / direct=3 / weightb=1 / open_gop=0 / weightp=2 / keyint=240 / keyint_min=24 / scenecut=40 / intra_refresh=0 / rc_lookahead=60 / rc=crf / mbtree=1 / crf=20.0 / qcomp=0.60 / qpmin=0 / qpmax=69 / qpstep=4 / vbv_maxrate=62500 / vbv_bufsize=78125 / crf_max=0.0 / nal_hrd=none / filler=0 / ip_ratio=1.40 / aq=1:1.00
    Language                                 : English
    Default                                  : Yes
    Forced                                   : No
    Color range                              : Limited
    Color primaries                          : BT.709
    Transfer characteristics                 : BT.709
    Matrix coefficients                      : BT.709
    Statistics Tags Issue                    : mkvmerge v15.0.0 ('Duel with the Devil') 64-bit 2017-12-05 06:35:52 / mkvmerge v15.0.0 ('Duel with the Devil') 64-bit 2017-12-05 06:35:52 / UTC 2017-12-04T14:30:07Z
    FromStats_BitRate                        : 7762076
    FromStats_Duration                       : 02:21:45.164000000
    FromStats_FrameCount                     : 203920
    FromStats_StreamSize                     : 8252216185

    Audio #1
    ID                                       : 2
    Format                                   : AC-3
    Format/Info                              : Audio Coding 3
    Format settings, Endianness              : Big
    Codec ID                                 : A_AC3
    Duration                                 : 2 h 21 min
    Bit rate mode                            : Constant
    Bit rate                                 : 640 kb/s
    Channel(s)                               : 6 channels
    Channel positions                        : Front: L C R, Side: L R, LFE
    Sampling rate                            : 48.0 kHz
    Frame rate                               : 31.250 FPS (1536 SPF)
    Bit depth                                : 16 bits
    Compression mode                         : Lossy
    Stream size                              : 649 MiB (6%)
    Title                                    : Latino-AC3
    Language                                 : Spanish
    Service kind                             : Complete Main
    Default                                  : Yes
    Forced                                   : No
    Statistics Tags Issue                    : mkvmerge v15.0.0 ('Duel with the Devil') 64-bit 2017-12-05 06:35:52 / mkvmerge v15.0.0 ('Duel with the Devil') 64-bit 2017-12-05 06:35:52 / UTC 2017-12-04T14:30:07Z
    FromStats_BitRate                        : 640000
    FromStats_Duration                       : 02:21:45.280000000
    FromStats_FrameCount                     : 265790
    FromStats_StreamSize                     : 680422400

    Audio #2
    ID                                       : 3
    Format                                   : DTS
    Format/Info                              : Digital Theater Systems
    Mode                                     : 16
    Format settings, Endianness              : Big
    Codec ID                                 : A_DTS
    Duration                                 : 2 h 21 min
    Bit rate mode                            : Constant
    Bit rate                                 : 1 509 kb/s
    Channel(s)                               : 6 channels
    Channel positions                        : Front: L C R, Side: L R, LFE
    Sampling rate                            : 48.0 kHz
    Frame rate                               : 93.750 FPS (512 SPF)
    Bit depth                                : 24 bits
    Compression mode                         : Lossy
    Stream size                              : 1.49 GiB (15%)
    Title                                    : Ingles-DTS
    Language                                 : English
    Default                                  : No
    Forced                                   : No
    Statistics Tags Issue                    : mkvmerge v15.0.0 ('Duel with the Devil') 64-bit 2017-12-05 06:35:52 / mkvmerge v15.0.0 ('Duel with the Devil') 64-bit 2017-12-05 06:35:52 / UTC 2017-12-04T14:30:07Z
    FromStats_BitRate                        : 1509000
    FromStats_Duration                       : 02:21:45.216000000
    FromStats_FrameCount                     : 797364
    FromStats_StreamSize                     : 1604296368

    Text #1
    ID                                       : 4
    Format                                   : PGS
    Muxing mode                              : zlib
    Codec ID                                 : S_HDMV/PGS
    Codec ID/Info                            : Picture based subtitle format used on BDs/HD-DVDs
    Title                                    : Forzados
    Language                                 : Spanish
    Default                                  : Yes
    Forced                                   : Yes
    Statistics Tags Issue                    : mkvmerge v15.0.0 ('Duel with the Devil') 64-bit 2017-12-05 06:35:52 / mkvmerge v15.0.0 ('Duel with the Devil') 64-bit 2017-12-05 06:35:52 / UTC 2017-12-04T14:30:07Z
    FromStats_BitRate                        : 172
    FromStats_Duration                       : 02:13:19.509000000
    FromStats_FrameCount                     : 20
    FromStats_StreamSize                     : 172226

    Text #2
    ID                                       : 5
    Format                                   : PGS
    Muxing mode                              : zlib
    Codec ID                                 : S_HDMV/PGS
    Codec ID/Info                            : Picture based subtitle format used on BDs/HD-DVDs
    Title                                    : Completos
    Language                                 : Spanish
    Default                                  : No
    Forced                                   : No
    Statistics Tags Issue                    : mkvmerge v15.0.0 ('Duel with the Devil') 64-bit 2017-12-05 06:35:52 / mkvmerge v15.0.0 ('Duel with the Devil') 64-bit 2017-12-05 06:35:52 / UTC 2017-12-04T14:30:07Z
    FromStats_BitRate                        : 36877
    FromStats_Duration                       : 02:17:16.287000000
    FromStats_FrameCount                     : 3490
    FromStats_StreamSize                     : 37966418

    Text #3
    ID                                       : 6
    Format                                   : PGS
    Muxing mode                              : zlib
    Codec ID                                 : S_HDMV/PGS
    Codec ID/Info                            : Picture based subtitle format used on BDs/HD-DVDs
    Title                                    : Completos
    Language                                 : English
    Default                                  : No
    Forced                                   : No
    Statistics Tags Issue                    : mkvmerge v15.0.0 ('Duel with the Devil') 64-bit 2017-12-05 06:35:52 / mkvmerge v15.0.0 ('Duel with the Devil') 64-bit 2017-12-05 06:35:52 / UTC 2017-12-04T14:30:07Z
    FromStats_BitRate                        : 38174
    FromStats_Duration                       : 02:17:04.192000000
    FromStats_FrameCount                     : 3617
    FromStats_StreamSize                     : 39243893

    Menu
    00:00:00.000                             : :Chapter 1
    00:47:26.802                             : :Chapter 2
    00:55:52.266                             : :Chapter 3
    01:36:49.721                             : :Chapter 4

  • Peso: 9.84 GiB

Sinopsis

Bienvenidos a Sin City, ciudad de policías corruptos, atractivas damas y vigilantes desesperados. Algunos están buscando venganza, algunos redención, y otros, ambas cosas. Un universo de héroes inverosímiles que intentan hacer lo correcto. Sin City es una ciudad que vive entre la luz y la oscuridad, llena de personajes singulares. Está por ejemplo Marv (Mickey Rourke), un superviviente que busca vengar la muerte de su único amor. También está Dwight (Clive Owen), un investigador privado que intenta dejar sus problemas atrás. Después de que un policía sea asesinado, Dwight no parará ante nada para proteger a sus amigos. Finalmente, está la historia de Hartigan (Bruce Willis), el último policía honesto de Sin City, que va tras la pista de una joven en manos del sádico hijo de un senador… con resultados inesperados.

Ficha técnica

Video trailer de la película

Enlaces de descarga

Descargar Sin City (Ciudad del pecado) (2005) EXTENDED Full 1080p Latino
Descargar

dpeliculas

Aportes de DPeliculasHDmega la pass es:dpeliculashdmega.org Aportes de CinemaniaHD la pass es:cinemaniahdd.com

Películas relacionadas

  • Barry Seal: solo en América (2017) 1080p Latino

    2017
    Barry Seal: solo en América (2017) 1080p Latino

    0.0 1 h 54 min 2017

    Basada en la vida real de Barry Seal, un expiloto que se convirtió en un importante narcotraficante...

    Director: Nick DiRosa

    Género: Acción

    Actores: William Mark McCullough

  • Línea mortal: al límite (2017) Full 1080p Latino

    2017
    Línea mortal: al límite (2017) Full 1080p Latino

    0.0 1 h 49 min 2017

    Remake del clasico de los 90 Línea mortal (Flatliners). Un grupo de jóvenes estudiantes de medicina...

    Director: Niels Arden Oplev

    Género: Ciencia ficción

    Actores: Wendy Raquel Robinson

  • La montaña entre nosotros (2017) Full 1080p Latino

    2017
    La montaña entre nosotros (2017) Full 1080p Latino

    5.0 1 h 51 min 2017

    Abandonados a su suerte después de un trágico accidente aéreo, Ben Bass (Idris Elba) y Alex Martin...

    Director: Tim Macarthur

    Género: Aventura

    Actores: Waleed Zuaiter

  • El francotirador (1978) Full 1080p Latino

    1978
    El francotirador (1978) Full 1080p Latino

    0.0 3h 2m 1978

    Descargar Pelicula El francotirador 1978 hd latino Unos amigos de un pequeño pueblo industrial acuden...

    Director: Michael Cimino

    Género: Drama

    Actores: Vitoon Winwitoon

Comentarios 2
  • Loco Misa - 06 diciembre, 2017

    men la contraseña no me sirve

    • Dpelis2

      Autor
      - 06 diciembre, 2017

      Es cinemaniahdd.com