Advertise here

Snowden (2016) 1080p Latino

1.499 vistas
1 estrella2 estrellas3 estrellas4 estrellas5 estrellas (2 votos, promedio: 4,50 de 5)
Cargando…

Información de Snowden (2016) 1080p Latino

Datos de la película

  • Calidad: 1080p
  • Audio: Español Latino AC3 2.0 iTUNES - Ingles AC3 5.1 BLURAY
  • Subtitulos: Español Latino SRT - Ingles SRT
  • Resolución: 1920x1080p
  • Formato: MKV
  • Codec: H.264
  • Encoder: Dpelis
  • Mediainfo: Clic para Mostrar Datos Ver
  • Snowden (2016) 1080p Latino.mkv
    Format                      : Matroska
    Format version              : Version 4 / Version 2
    File size                   : 3.81 GiB
    Duration                    : 2 h 14 min
    Overall bit rate            : 4 048 kb/s
    Movie name                  : DPeliculasHDMega.ORG
    Encoded date                : UTC 2017-08-20 20:38:57 / UTC 2017-08-10T00:46:34Z
    Writing application         : mkvmerge v10.0.0 ('To Drown In You') 64bit
    Writing library             : libebml v1.3.4 + libmatroska v1.4.5 / Lavf57.7.2

    Video
    ID                          : 1
    Format                      : AVC
    Format/Info                 : Advanced Video Codec
    Format profile              : High@L4.1
    Format settings, CABAC      : Yes
    Format settings, ReFrames   : 4 frames
    Codec ID                    : V_MPEG4/ISO/AVC
    Duration                    : 2 h 14 min
    Bit rate                    : 3 500 kb/s
    Width                       : 1 920 pixels
    Height                      : 1 080 pixels
    Display aspect ratio        : 16:9
    Frame rate mode             : Constant
    Frame rate                  : 23.976 (24000/1001) FPS
    Color space                 : YUV
    Chroma subsampling          : 4:2:0
    Bit depth                   : 8 bits
    Scan type                   : Progressive
    Bits/(Pixel*Frame)          : 0.070
    Stream size                 : 3.19 GiB (84%)
    Title                       : DPPeliculasHDMega.ORG
    Writing library             : x264 core 148 r2708 86b7198
    Encoding settings           : cabac=1 / ref=3 / deblock=1:0:0 / analyse=0x3:0x113 / me=hex / subme=7 / psy=1 / psy_rd=1.00:0.00 / mixed_ref=1 / me_range=16 / chroma_me=1 / trellis=1 / 8x8dct=1 / cqm=0 / deadzone=21,11 / fast_pskip=1 / chroma_qp_offset=-2 / threads=12 / lookahead_threads=2 / sliced_threads=0 / nr=0 / decimate=1 / interlaced=0 / bluray_compat=0 / constrained_intra=0 / bframes=3 / b_pyramid=2 / b_adapt=1 / b_bias=0 / direct=1 / weightb=1 / open_gop=0 / weightp=2 / keyint=240 / keyint_min=24 / scenecut=40 / intra_refresh=0 / rc_lookahead=40 / rc=abr / mbtree=1 / bitrate=3500 / ratetol=1.0 / qcomp=0.60 / qpmin=0 / qpmax=69 / qpstep=4 / vbv_maxrate=62500 / vbv_bufsize=78125 / nal_hrd=none / filler=0 / ip_ratio=1.40 / aq=1:1.00
    Default                     : Yes
    Forced                      : No
    Color range                 : Limited
    Color primaries             : BT.709
    Transfer characteristics    : BT.709
    Matrix coefficients         : BT.709
    Statistics Tags Issue       : mkvmerge v10.0.0 ('To Drown In You') 64bit 2017-08-20 20:38:57 / mkvmerge v10.0.0 ('To Drown In You') 64bit 2017-08-20 20:38:57 / UTC 2017-08-10T00:46:34Z
    FromStats_BitRate           : 3469405
    FromStats_Duration          : 02:14:49.081000000
    FromStats_FrameCount        : 193944
    FromStats_StreamSize        : 3508038163

    Audio #1
    ID                          : 2
    Format                      : AC-3
    Format/Info                 : Audio Coding 3
    Format settings, Endianness : Big
    Codec ID                    : A_AC3
    Duration                    : 2 h 14 min
    Bit rate mode               : Constant
    Bit rate                    : 192 kb/s
    Channel(s)                  : 2 channels
    Channel positions           : Front: L R
    Sampling rate               : 44.1 kHz
    Frame rate                  : 28.711 FPS (1536 spf)
    Bit depth                   : 16 bits
    Compression mode            : Lossy
    Delay relative to video     : -5 ms
    Stream size                 : 185 MiB (5%)
    Language                    : Spanish
    Service kind                : Complete Main
    Default                     : Yes
    Forced                      : No
    Statistics Tags Issue       : mkvmerge v10.0.0 ('To Drown In You') 64bit 2017-08-20 20:38:57 / mkvmerge v10.0.0 ('To Drown In You') 64bit 2017-08-20 20:38:57 / UTC 2017-08-10T00:46:34Z
    FromStats_BitRate           : 191999
    FromStats_Duration          : 02:14:49.113000000
    FromStats_FrameCount        : 232246
    FromStats_StreamSize        : 194138696

    Audio #2
    ID                          : 3
    Format                      : AC-3
    Format/Info                 : Audio Coding 3
    Format settings, Endianness : Big
    Codec ID                    : A_AC3
    Duration                    : 2 h 14 min
    Bit rate mode               : Constant
    Bit rate                    : 384 kb/s
    Channel(s)                  : 6 channels
    Channel positions           : Front: L C R, Side: L R, LFE
    Sampling rate               : 48.0 kHz
    Frame rate                  : 31.250 FPS (1536 spf)
    Bit depth                   : 16 bits
    Compression mode            : Lossy
    Delay relative to video     : -5 ms
    Stream size                 : 370 MiB (9%)
    Title                       : Surround
    Language                    : English
    Service kind                : Complete Main
    Default                     : No
    Forced                      : No
    Statistics Tags Issue       : mkvmerge v10.0.0 ('To Drown In You') 64bit 2017-08-20 20:38:57 / mkvmerge v10.0.0 ('To Drown In You') 64bit 2017-08-20 20:38:57 / UTC 2017-08-10T00:46:34Z
    FromStats_BitRate           : 384000
    FromStats_Duration          : 02:14:49.056000000
    FromStats_FrameCount        : 252783
    FromStats_StreamSize        : 388274688

    Text #1
    ID                          : 4
    Format                      : UTF-8
    Codec ID                    : S_TEXT/UTF8
    Codec ID/Info               : UTF-8 Plain Text
    Language                    : Spanish
    Default                     : Yes
    Forced                      : No
    Statistics Tags Issue       : mkvmerge v10.0.0 ('To Drown In You') 64bit 2017-08-20 20:38:57 / mkvmerge v10.0.0 ('To Drown In You') 64bit 2017-08-20 20:38:57 / UTC 2017-08-10T00:46:34Z
    FromStats_BitRate           : 74
    FromStats_Duration          : 02:13:56.904000000
    FromStats_FrameCount        : 1994
    FromStats_StreamSize        : 74555

    Text #2
    ID                          : 5
    Format                      : UTF-8
    Codec ID                    : S_TEXT/UTF8
    Codec ID/Info               : UTF-8 Plain Text
    Language                    : English
    Default                     : No
    Forced                      : No
    Statistics Tags Issue       : mkvmerge v10.0.0 ('To Drown In You') 64bit 2017-08-20 20:38:57 / mkvmerge v10.0.0 ('To Drown In You') 64bit 2017-08-20 20:38:57 / UTC 2017-08-10T00:46:34Z
    FromStats_BitRate           : 85
    FromStats_Duration          : 02:09:52.993000000
    FromStats_FrameCount        : 2177
    FromStats_StreamSize        : 83305

    Menu
    00:00:00.000                : :Chapter 1
    00:07:42.379                : :Chapter 2
    00:15:49.991                : :Chapter 3
    00:20:06.038                : :Chapter 4
    00:26:32.007                : :Chapter 5
    00:30:10.976                : :Chapter 6
    00:35:30.211                : :Chapter 7
    00:41:42.875                : :Chapter 8
    00:51:45.769                : :Chapter 9
    00:59:14.301                : :Chapter 10
    01:04:44.422                : :Chapter 11
    01:12:47.822                : :Chapter 12
    01:18:07.474                : :Chapter 13
    01:25:11.398                : :Chapter 14
    01:30:30.717                : :Chapter 15
    01:38:11.427                : :Chapter 16
    01:50:06.141                : :Chapter 17
    01:57:00.472                : :Chapter 18
    02:03:22.353                : :Chapter 19
    02:07:48.911                : :Chapter 20

  • Peso: 3.81 GB

Sinopsis

Basada en el libro “The Snowden files. The inside story of the world’s most wanted man” escrito por Luke Harding, y en un libro escrito por Anatoly Kucherena, el abogado ruso de Edward Snowden. Narra los acontecimientos que acompañaron la publicación por parte del diario The Guardian de los documentos clasificados que aportó Edward Snowden sobre el programa de vigilancia mundial secreto de la NSA (Agencia de Seguridad Nacional) en 2013.

Ficha técnica

  • Titulo original: Snowden
  • Fecha de lanzamiento: 15-09-2016 (Germany, United States of America)
  • Director: Jan Birka, Oliver Stone
  • Género: Drama, Suspense
  • Puntuación: 4.5 2 votos
  • Duración:
    2h 15m

Video trailer de la película

Enlaces de descarga

Descargar Snowden (2016) 1080p Latino
Descargar

dpeliculas

Aportes de DPeliculasHDmega la pass es:dpeliculashdmega.org Aportes de CinemaniaHD la pass es:cinemaniahdd.com
Guardado en : Drama , Suspense

Películas relacionadas

  • La montaña entre nosotros (2017) 1080p Latino

    2017
    La montaña entre nosotros (2017) 1080p Latino

    0.0 1h 43m 2017

    Adaptación de la novela de Charles Martin. La historia sigue a dos personas distintas, Ashley es una...

    Director: Tim Macarthur

    Género: Aventura

    Actores: Waleed Zuaiter

  • El francotirador (1978) Full 1080p Latino

    1978
    El francotirador (1978) Full 1080p Latino

    0.0 3h 2m 1978

    Descargar Pelicula El francotirador 1978 hd latino Unos amigos de un pequeño pueblo industrial acuden...

    Director: Michael Cimino

    Género: Drama

    Actores: Vitoon Winwitoon

  • Arrow (2017) Temporada 6 WEBDL 1080p Latino

    2012
    Arrow (2017) Temporada 6 WEBDL 1080p Latino

    2.3 0h 42m 2012

    Con el futuro del equipo pendiendo de un hilo, Arrow le dio una nueva definición a la frase “explotar...

    Director: Marc Guggenheim

    Género: Acción

    Actores: Willa Holland

Comentarios 5
  • k4roso - 17 octubre, 2017

    HOLA LA ESTABA VIENDO EN ESPAÑOL Y EN EL MINUTO 51:52 SE PASA A INGLES SOLO UNOS SEGUNDOS Y VUELVE A ESPAÑOL , Y EN OTROS MINUTOS MAS A DELANTE TAMBIÉN! LO ARREGLAN A ESO O NO?

    • dpelis

      Administrador
      - 17 octubre, 2017

      en la publicacion de portada negra se agrego q el audio fue editado , porque no cuadra el audio con el video, tiene escenas mas el ingles q el latino, debe usar los subtitulos latino, saludos

  • jk2018 - 26 agosto, 2017

    talves la saques en formato psg en 1080 px
    gracias…

    se ve mas elegantes las movies en ese estilo

  • Erick - 20 agosto, 2017

    Muchisimas gracias!, esta peli se subira plateada?

    • dpelis

      Administrador
      - 24 agosto, 2017

      este mes