Advertise here

Stasis (2017) Webdl 720p Latino

1.977 vistas
1 estrella2 estrellas3 estrellas4 estrellas5 estrellas (Ninguna valoración todavía)
Cargando…

Información de Stasis (2017) Webdl 720p Latino

Datos de la película

  • Calidad: WEBDL
  • Audio: Se especifica abajo de la Sinopsis
  • Subtitulos: Español Latino SRT - Ingles SRT
  • Resolución: 1280x534p
  • Formato: MKV
  • Codec: H.264
  • Encoder: Dpelis
  • Mediainfo: Clic para Mostrar Datos Ver
  • Stasis.2017.720p.web-dl.720p.LATINO.mkv
    Format                      : Matroska
    Format version              : Version 4 / Version 2
    File size                   : 1.32 GiB
    Duration                    : 1 h 24 min
    Overall bit rate            : 2 234 kb/s
    Movie name                  : Stasis.2017.720p.WEB-DL.DD5.1.H264-FGT
    Encoded date                : UTC 2017-07-02 04:36:29 / UTC 2017-07-02T02:54:47Z
    Writing application         : mkvmerge v10.0.0 ('To Drown In You') 64bit
    Writing library             : libebml v1.3.4 + libmatroska v1.4.5 / Lavf57.7.2

    Video
    ID                          : 1
    Format                      : AVC
    Format/Info                 : Advanced Video Codec
    Format profile              : High@L4.1
    Format settings, CABAC      : Yes
    Format settings, ReFrames   : 4 frames
    Codec ID                    : V_MPEG4/ISO/AVC
    Duration                    : 1 h 24 min
    Bit rate                    : 1 614 kb/s
    Nominal bit rate            : 1 700 kb/s
    Width                       : 1 280 pixels
    Height                      : 534 pixels
    Display aspect ratio        : 2.40:1
    Frame rate mode             : Constant
    Frame rate                  : 23.976 (24000/1001) FPS
    Color space                 : YUV
    Chroma subsampling          : 4:2:0
    Bit depth                   : 8 bits
    Scan type                   : Progressive
    Bits/(Pixel*Frame)          : 0.098
    Stream size                 : 977 MiB (72%)
    Writing library             : x264 core 148 r2708 86b7198
    Encoding settings           : cabac=1 / ref=3 / deblock=1:0:0 / analyse=0x3:0x113 / me=hex / subme=7 / psy=1 / psy_rd=1.00:0.00 / mixed_ref=1 / me_range=16 / chroma_me=1 / trellis=1 / 8x8dct=1 / cqm=0 / deadzone=21,11 / fast_pskip=1 / chroma_qp_offset=-2 / threads=17 / lookahead_threads=2 / sliced_threads=0 / nr=0 / decimate=1 / interlaced=0 / bluray_compat=0 / constrained_intra=0 / bframes=3 / b_pyramid=2 / b_adapt=1 / b_bias=0 / direct=1 / weightb=1 / open_gop=0 / weightp=2 / keyint=240 / keyint_min=24 / scenecut=40 / intra_refresh=0 / rc_lookahead=40 / rc=abr / mbtree=1 / bitrate=1700 / ratetol=1.0 / qcomp=0.60 / qpmin=0 / qpmax=69 / qpstep=4 / vbv_maxrate=62500 / vbv_bufsize=78125 / nal_hrd=none / filler=0 / ip_ratio=1.40 / aq=1:1.00
    Default                     : Yes
    Forced                      : No
    Color range                 : Limited
    Color primaries             : BT.709
    Transfer characteristics    : BT.709
    Matrix coefficients         : BT.709
    Statistics Tags Issue       : mkvmerge v10.0.0 ('To Drown In You') 64bit 2017-07-02 04:36:29 / mkvmerge v10.0.0 ('To Drown In You') 64bit 2017-07-02 04:36:29 / UTC 2017-07-02T02:54:47Z
    FromStats_BitRate           : 1656077
    FromStats_Duration          : 01:24:40.075000000
    FromStats_FrameCount        : 121800
    FromStats_StreamSize        : 1051624583

    Audio #1
    ID                          : 2
    Format                      : AC-3
    Format/Info                 : Audio Coding 3
    Format settings, Endianness : Big
    Codec ID                    : A_AC3
    Duration                    : 1 h 24 min
    Bit rate mode               : Constant
    Bit rate                    : 192 kb/s
    Channel(s)                  : 2 channels
    Channel positions           : Front: L R
    Sampling rate               : 48.0 kHz
    Frame rate                  : 31.250 FPS (1536 spf)
    Bit depth                   : 16 bits
    Compression mode            : Lossy
    Stream size                 : 116 MiB (9%)
    Language                    : Spanish
    Service kind                : Complete Main
    Default                     : Yes
    Forced                      : No
    Statistics Tags Issue       : mkvmerge v10.0.0 ('To Drown In You') 64bit 2017-07-02 04:36:29 / mkvmerge v10.0.0 ('To Drown In You') 64bit 2017-07-02 04:36:29 / UTC 2017-07-02T02:54:47Z
    FromStats_BitRate           : 192000
    FromStats_Duration          : 01:24:40.096000000
    FromStats_FrameCount        : 158753
    FromStats_StreamSize        : 121922304

    Audio #2
    ID                          : 3
    Format                      : AC-3
    Format/Info                 : Audio Coding 3
    Format settings, Endianness : Big
    Codec ID                    : A_AC3
    Duration                    : 1 h 24 min
    Bit rate mode               : Constant
    Bit rate                    : 384 kb/s
    Channel(s)                  : 6 channels
    Channel positions           : Front: L C R, Side: L R, LFE
    Sampling rate               : 48.0 kHz
    Frame rate                  : 31.250 FPS (1536 spf)
    Bit depth                   : 16 bits
    Compression mode            : Lossy
    Stream size                 : 233 MiB (17%)
    Title                       : Surround
    Language                    : English
    Service kind                : Complete Main
    Default                     : No
    Forced                      : No
    Statistics Tags Issue       : mkvmerge v10.0.0 ('To Drown In You') 64bit 2017-07-02 04:36:29 / mkvmerge v10.0.0 ('To Drown In You') 64bit 2017-07-02 04:36:29 / UTC 2017-07-02T02:54:47Z
    FromStats_BitRate           : 384000
    FromStats_Duration          : 01:24:40.128000000
    FromStats_FrameCount        : 158754
    FromStats_StreamSize        : 243846144

    Text #1
    ID                          : 4
    Format                      : UTF-8
    Codec ID                    : S_TEXT/UTF8
    Codec ID/Info               : UTF-8 Plain Text
    Language                    : Spanish
    Default                     : Yes
    Forced                      : No
    Statistics Tags Issue       : mkvmerge v10.0.0 ('To Drown In You') 64bit 2017-07-02 04:36:29 / mkvmerge v10.0.0 ('To Drown In You') 64bit 2017-07-02 04:36:29 / UTC 2017-07-02T02:54:47Z
    FromStats_BitRate           : 55
    FromStats_Duration          : 01:17:04.251000000
    FromStats_FrameCount        : 949
    FromStats_StreamSize        : 32229

    Text #2
    ID                          : 5
    Format                      : UTF-8
    Codec ID                    : S_TEXT/UTF8
    Codec ID/Info               : UTF-8 Plain Text
    Language                    : English
    Default                     : No
    Forced                      : No
    Statistics Tags Issue       : mkvmerge v10.0.0 ('To Drown In You') 64bit 2017-07-02 04:36:29 / mkvmerge v10.0.0 ('To Drown In You') 64bit 2017-07-02 04:36:29 / UTC 2017-07-02T02:54:47Z
    FromStats_BitRate           : 52
    FromStats_Duration          : 01:18:00.145000000
    FromStats_FrameCount        : 862
    FromStats_StreamSize        : 30746

    Menu
    00:00:00.000                : :Chapter 1
    00:15:10.743                : :Chapter 2
    00:27:36.572                : :Chapter 3
    00:40:47.654                : :Chapter 4
    00:55:49.012                : :Chapter 5
    01:08:38.948                : :Chapter 6

  • Peso: 1.32 GB

Sinopsis

Después de una noche de fiesta y dejada atrás por sus amigos, Ava se despierta y se escabulle de regreso a casa sólo para encontrar que ella ya está segura en la cama. Pero eso no es Ava – es alguien que se parece a ella. Un fugitivo que viaja en el tiempo ha robado el cuerpo de Ava, su identidad y su vida. Además, ella no está sola. Hay otros, escondidos en el pasado, viviendo secretamente entre nosotros, conspirando para alterar el futuro. Sin su cuerpo, Ava es un fantasma virtual, silencioso e invisible para el mundo. Y, hasta donde ella sabe, es la única que puede detenerlos y poner la línea de tiempo de nuevo en curso.

 

Español Latino AC3 2.0 –  Ingles AC3 5.1

Ficha técnica

Video trailer de la película

Enlaces de descarga

Descargar Stasis (2017) Webdl 720p Latino
Descargar

dpeliculas

Aportes de DPeliculasHDmega la pass es:dpeliculashdmega.org Aportes de CinemaniaHD la pass es:cinemaniahdd.com
Guardado en : Ciencia ficción

Películas relacionadas

  • Línea mortal: al límite (2017) Full 1080p Latino

    2017
    Línea mortal: al límite (2017) Full 1080p Latino

    0.0 1 h 49 min 2017

    Remake del clasico de los 90 Línea mortal (Flatliners). Un grupo de jóvenes estudiantes de medicina...

    Director: Niels Arden Oplev

    Género: Ciencia ficción

    Actores: Wendy Raquel Robinson

  • Star Trek: En la oscuridad (2013) Full 1080p Latino

    2013
    Star Trek: En la oscuridad (2013) Full 1080p Latino

    5.0 2 h 12 min 2013

    Cuando a la tripulación de la nave Enterprise le ordenan que regrese a casa, en la Tierra se enfrentan...

    Director: Vanessa Meier

    Género: Acción

    Actores: Zoe Saldana

  • Arrow (2017) Temporada 6 WEBDL 1080p Latino

    2012
    Arrow (2017) Temporada 6 WEBDL 1080p Latino

    2.3 0h 42m 2012

    Con el futuro del equipo pendiendo de un hilo, Arrow le dio una nueva definición a la frase “explotar...

    Director: Marc Guggenheim

    Género: Acción

    Actores: Willa Holland

  • Línea mortal: Al límite (2017) 1080p Latino

    2017
    Línea mortal: Al límite (2017) 1080p Latino

    3.0 1 h 49 min 2017

    Un grupo de jóvenes estudiantes de medicina llevan a cabo un experimento que implica una muerte provocada...

    Director: Niels Arden Oplev

    Género: Ciencia ficción

    Actores: Wendy Raquel Robinson

Comentarios 2
  • Mac - 07 julio, 2017

    Hola amigos, sus aportes estan buenisimos, me gustaria ver la posibilidad de aportar con la membresia VIP, si me pueden enviar mas info, saludos desde chile (=