Advertise here

The Flash (2017) Temporada 4 WEBDL 1080p Latino

8.358 vistas
1 estrella2 estrellas3 estrellas4 estrellas5 estrellas (8 votos, promedio: 2,75 de 5)
Cargando…

Información de The Flash (2017) Temporada 4 WEBDL 1080p Latino

Datos de la película

  • Calidad: WEBDL
  • Audio: Se especifica abajo de la Sinopsis
  • Subtitulos: Español Latino SRT
  • Resolución: 1920x1080p
  • Formato: MKV
  • Codec: H.264
  • Encoder: Dpelis
  • Mediainfo: Clic para Mostrar Datos Ver
  • Format                                   : Matroska
    Format version                           : Version 4 / Version 2
    File size                                : 1.22 GiB
    Duration                                 : 42 min 21 s
    Overall bit rate                         : 4 110 kb/s
    Movie name                               : DPeliculasHDMega.ORG
    Encoded date                             : UTC 2017-11-06 05:39:41 / UTC 2017-10-12T02:00:36Z
    Writing application                      : mkvmerge v15.0.0 ('Duel with the Devil') 64-bit
    Writing library                          : libebml v1.3.5 + libmatroska v1.4.5 / Lavf57.7.2

    Video
    ID                                       : 1
    Format                                   : AVC
    Format/Info                              : Advanced Video Codec
    Format profile                           : High@L4.1
    Format settings                          : CABAC / 4 Ref Frames
    Format settings, CABAC                   : Yes
    Format settings, RefFrames               : 4 frames
    Codec ID                                 : V_MPEG4/ISO/AVC
    Duration                                 : 42 min 21 s
    Bit rate                                 : 3 500 kb/s
    Width                                    : 1 920 pixels
    Height                                   : 1 080 pixels
    Display aspect ratio                     : 16:9
    Frame rate mode                          : Constant
    Frame rate                               : 23.976 (24000/1001) FPS
    Color space                              : YUV
    Chroma subsampling                       : 4:2:0
    Bit depth                                : 8 bits
    Scan type                                : Progressive
    Bits/(Pixel*Frame)                       : 0.070
    Stream size                              : 1.00 GiB (82%)
    Title                                    : The Flash (2017) Temporada 4 S04E01 WEBDL 1080p Latino
    Writing library                          : x264 core 148 r2708 86b7198
    Encoding settings                        : cabac=1 / ref=4 / deblock=1:0:0 / analyse=0x3:0x113 / me=umh / subme=8 / psy=1 / psy_rd=1.00:0.00 / mixed_ref=1 / me_range=16 / chroma_me=1 / trellis=1 / 8x8dct=1 / cqm=0 / deadzone=21,11 / fast_pskip=1 / chroma_qp_offset=-2 / threads=12 / lookahead_threads=2 / sliced_threads=0 / nr=0 / decimate=1 / interlaced=0 / bluray_compat=0 / constrained_intra=0 / bframes=3 / b_pyramid=2 / b_adapt=2 / b_bias=0 / direct=3 / weightb=1 / open_gop=0 / weightp=2 / keyint=240 / keyint_min=24 / scenecut=40 / intra_refresh=0 / rc_lookahead=50 / rc=abr / mbtree=1 / bitrate=3500 / ratetol=1.0 / qcomp=0.60 / qpmin=0 / qpmax=69 / qpstep=4 / vbv_maxrate=62500 / vbv_bufsize=78125 / nal_hrd=none / filler=0 / ip_ratio=1.40 / aq=1:1.00
    Language                                 : English
    Default                                  : Yes
    Forced                                   : No
    Color range                              : Limited
    Color primaries                          : BT.709
    Transfer characteristics                 : BT.709
    Matrix coefficients                      : BT.709
    Statistics Tags Issue                    : mkvmerge v15.0.0 ('Duel with the Devil') 64-bit 2017-11-06 05:39:41 / mkvmerge v15.0.0 ('Duel with the Devil') 64-bit 2017-11-06 05:39:41 / UTC 2017-10-12T02:00:36Z
    FromStats_BitRate                        : 3467517
    FromStats_Duration                       : 00:42:21.706000000
    FromStats_FrameCount                     : 60940
    FromStats_StreamSize                     : 1101676397

    Audio #1
    ID                                       : 2
    Format                                   : AC-3
    Format/Info                              : Audio Coding 3
    Format settings, Endianness              : Big
    Codec ID                                 : A_AC3
    Duration                                 : 42 min 21 s
    Bit rate mode                            : Constant
    Bit rate                                 : 256 kb/s
    Channel(s)                               : 2 channels
    Channel positions                        : Front: L R
    Sampling rate                            : 48.0 kHz
    Frame rate                               : 31.250 FPS (1536 SPF)
    Bit depth                                : 16 bits
    Compression mode                         : Lossy
    Delay relative to video                  : -5 ms
    Stream size                              : 77.6 MiB (6%)
    Title                                    : Larino-AC3
    Language                                 : Spanish
    Service kind                             : Complete Main
    Default                                  : Yes
    Forced                                   : No
    Statistics Tags Issue                    : mkvmerge v15.0.0 ('Duel with the Devil') 64-bit 2017-11-06 05:39:41 / mkvmerge v15.0.0 ('Duel with the Devil') 64-bit 2017-11-06 05:39:41 / UTC 2017-10-12T02:00:36Z
    FromStats_BitRate                        : 256000
    FromStats_Duration                       : 00:42:21.504000000
    FromStats_FrameCount                     : 79422
    FromStats_StreamSize                     : 81328128

    Audio #2
    ID                                       : 3
    Format                                   : AC-3
    Format/Info                              : Audio Coding 3
    Format settings, Endianness              : Big
    Codec ID                                 : A_AC3
    Duration                                 : 42 min 21 s
    Bit rate mode                            : Constant
    Bit rate                                 : 384 kb/s
    Channel(s)                               : 6 channels
    Channel positions                        : Front: L C R, Side: L R, LFE
    Sampling rate                            : 48.0 kHz
    Frame rate                               : 31.250 FPS (1536 SPF)
    Bit depth                                : 16 bits
    Compression mode                         : Lossy
    Delay relative to video                  : -5 ms
    Stream size                              : 116 MiB (9%)
    Title                                    : Ingles-AC3
    Language                                 : English
    Service kind                             : Complete Main
    Default                                  : No
    Forced                                   : No
    Statistics Tags Issue                    : mkvmerge v15.0.0 ('Duel with the Devil') 64-bit 2017-11-06 05:39:41 / mkvmerge v15.0.0 ('Duel with the Devil') 64-bit 2017-11-06 05:39:41 / UTC 2017-10-12T02:00:36Z
    FromStats_BitRate                        : 384000
    FromStats_Duration                       : 00:42:21.632000000
    FromStats_FrameCount                     : 79426
    FromStats_StreamSize                     : 121998336

    Text
    ID                                       : 4
    Format                                   : UTF-8
    Codec ID                                 : S_TEXT/UTF8
    Codec ID/Info                            : UTF-8 Plain Text
    Language                                 : Spanish
    Default                                  : No
    Forced                                   : No
    Statistics Tags Issue                    : mkvmerge v15.0.0 ('Duel with the Devil') 64-bit 2017-11-06 05:39:41 / mkvmerge v15.0.0 ('Duel with the Devil') 64-bit 2017-11-06 05:39:41 / UTC 2017-10-12T02:00:36Z
    FromStats_BitRate                        : 74
    FromStats_Duration                       : 00:41:59.412000000
    FromStats_FrameCount                     : 724
    FromStats_StreamSize                     : 23462

  • Peso: 1.20 GB Aprox C/U (7 Capitulos Disponible- Nuevo Capitulo Latino Dominigos)

Sinopsis

Enfrentarse a una versión remanente de uno mismo es algo que nadie debería tener que hacer, pero eso es exactamente a lo que se enfrentó Barry Allen (alias The Flash), ya luchó para salvar la vida de su prometida Iris West del Dios de la Velocidad conocido como Savitar. La victoria de Barry fue corta, ya que una desequilibrado Speed Force comenzó a causar estragos en Central City, obligando a Barry a sacrificarse por el bien mayor. Con El Hombre Vivo Más Rápido atrapado dentro de una energía extra-dimensional, y peligros desconocidos al acecho en las sombras, dependerá de Team Flash el liberar a Barry de su propio infierno personal.

Barry tiene las manos llenas cuando se enfrenta a una meta peligrosaque puede controlar la tecnología, mientras que también se enfrenta a un obstáculo en su vida personal: las repercusiones de abandonar a Iris durante seis meses para equilibrar la Speed Force. Mientras tanto, Gypsy rompe las reglas por una cita con Cisco, pero se molesta cuando su trabajo los mantiene separados.

Audio Latino AC3 Capturado – Créditos Alex

Ficha técnica

Video trailer de la película

Enlaces de descarga

Descargar The Flash (2017) Temporada 4 WEBDL 1080p Latino
Descargar

dpeliculas

Aportes de DPeliculasHDmega la pass es:dpeliculashdmega.org Aportes de CinemaniaHD la pass es:cinemaniahdd.com
Guardado en : Drama , Sci-Fi & Fantasy , Series

Películas relacionadas

  • Arrow (2017) Temporada 6 WEBDL 1080p Latino

    2012
    Arrow (2017) Temporada 6 WEBDL 1080p Latino

    2.3 0h 42m 2012

    Con el futuro del equipo pendiendo de un hilo, Arrow le dio una nueva definición a la frase “explotar...

    Director: Marc Guggenheim

    Género: Acción

    Actores: Willa Holland

  • Línea mortal: Al límite (2017) 1080p Latino

    2017
    Línea mortal: Al límite (2017) 1080p Latino

    3.0 1 h 49 min 2017

    Un grupo de jóvenes estudiantes de medicina llevan a cabo un experimento que implica una muerte provocada...

    Director: Niels Arden Oplev

    Género: Ciencia ficción

    Actores: Wendy Raquel Robinson

  • Un reino unido (2016) 1080p Latino

    2016
    Un reino unido (2016) 1080p Latino

    0.0 1 h 50 min 2016

    Biopic sobre el Príncipe Seretse Khama, el rey de Botsuana, que al contraer matrimonio en 1948 con Ruth...

    Director: Amma Asante

    Género: Drama

    Actores: Zackary Momoh

  • The Walking Dead (2017) Temporada 8 WEB-DL 1080p Latino

    2017
    The Walking Dead (2017) Temporada 8 WEB-DL 1080p Latino

    5.0 0h 42m 2017

    Rick, Maggie y Ezekiel reúnen a sus comunidades para derrotar a Negan y los salvadores. Gregory intenta...

    Director: Frank Darabont

    Género: Action & Adventure

    Actores: Norman Reedus

  • Vikingos Temporada 5 (2017) WEB-DL Amazon 1080p Latino

    2017
    Vikingos Temporada 5 (2017) WEB-DL Amazon 1080p Latino

    0.0 0h 44m 2017

    Sigue las aventuras de Ragnar Lothbrok, el héroe más grande de su época. La serie narra las sagas...

    Director: Michael Hirst

    Género: Action & Adventure

    Actores: Moe Dunford

Comentarios 13
  • RuddyYankee - 11 diciembre, 2017

    Esperando lo demás Capítulo

  • Sergio Nocua - 20 noviembre, 2017

    Excelente pagina muchachos………esperando los capitulos todos los sabados….!!!!!

  • Sergio Nocua - 16 noviembre, 2017

    Buen dia muchachos…para cuando el 4 episodio

    • dpelis

      Administrador
      - 18 noviembre, 2017

      cada sabado

  • Janos - 09 noviembre, 2017

    Subiran los capitulos nuevos, porque solo hay 2 ;(
    Y me encanta bajarlos de aca, es de la mejor calidad que consigo 🙂

    • dpelis

      Administrador
      - 09 noviembre, 2017

      cada sabado se estrena en latino, proximo sabado se agrega el 3

      • Sergio Nocua - 17 noviembre, 2017

        Muy buena pagina muchachos…..esperaremos con ansias el capitulo 4 en latino para este 18 de noviembre!!!!!

  • Jonna - 30 octubre, 2017

    Muchas gracias por los capítulos, esperándolos semanalmente :3

  • Jose - 25 octubre, 2017

    Genial, subirás las demás temporadas en latino?

    • dpelis

      Administrador
      - 25 octubre, 2017

      estan en proceso

  • eze_de_aries - 18 octubre, 2017

    Que genial encontrar una página que sube películas y series con gran calidad! Muchas gracias!

  • kmilo051 - 12 octubre, 2017

    Muchas gracias. Subirán el resto de temporadas?

    • dpelis

      Administrador
      - 13 octubre, 2017

      si estimado, trabajando en ello