Advertise here

The Immortal Life of Henrietta Lacks (2017) 1080p Latino

629 vistas
1 estrella2 estrellas3 estrellas4 estrellas5 estrellas (Ninguna valoración todavía)
Cargando…

Información de The Immortal Life of Henrietta Lacks (2017) 1080p Latino

Datos de la película

  • Calidad: 1080p
  • Audio: Español Latino AC3 2.0 BLURAY - Ingles AC3 5.1 BLURAY
  • Subtitulos: Español Latino SRT - Ingles SRT
  • Resolución: 1920x1080p
  • Formato: MKV
  • Codec: H.264
  • Encoder: Dpelis
  • Mediainfo: Clic para Mostrar Datos Ver
  • The Immortal Life of Henrietta Lacks (2017) 1080p Latino.mkv
    Format                      : Matroska
    Format version              : Version 4 / Version 2
    File size                   : 2.60 GiB
    Duration                    : 1 h 32 min
    Overall bit rate            : 4 017 kb/s
    Movie name                  : DPeliculasHDMega.ORG
    Encoded date                : UTC 2017-08-27 00:11:02 / UTC 2017-08-26T23:37:11Z
    Writing application         : mkvmerge v10.0.0 ('To Drown In You') 64bit
    Writing library             : libebml v1.3.4 + libmatroska v1.4.5 / Lavf57.7.2

    Video
    ID                          : 1
    Format                      : AVC
    Format/Info                 : Advanced Video Codec
    Format profile              : High@L4.1
    Format settings, CABAC      : Yes
    Format settings, ReFrames   : 4 frames
    Codec ID                    : V_MPEG4/ISO/AVC
    Duration                    : 1 h 32 min
    Bit rate                    : 3 297 kb/s
    Nominal bit rate            : 3 500 kb/s
    Width                       : 1 920 pixels
    Height                      : 1 080 pixels
    Display aspect ratio        : 16:9
    Frame rate mode             : Constant
    Frame rate                  : 23.976 (24000/1001) FPS
    Color space                 : YUV
    Chroma subsampling          : 4:2:0
    Bit depth                   : 8 bits
    Scan type                   : Progressive
    Bits/(Pixel*Frame)          : 0.066
    Stream size                 : 2.13 GiB (82%)
    Writing library             : x264 core 148 r2708 86b7198
    Encoding settings           : cabac=1 / ref=3 / deblock=1:0:0 / analyse=0x3:0x113 / me=hex / subme=7 / psy=1 / psy_rd=1.00:0.00 / mixed_ref=1 / me_range=16 / chroma_me=1 / trellis=1 / 8x8dct=1 / cqm=0 / deadzone=21,11 / fast_pskip=1 / chroma_qp_offset=-2 / threads=34 / lookahead_threads=5 / sliced_threads=0 / nr=0 / decimate=1 / interlaced=0 / bluray_compat=0 / constrained_intra=0 / bframes=3 / b_pyramid=2 / b_adapt=1 / b_bias=0 / direct=1 / weightb=1 / open_gop=0 / weightp=2 / keyint=240 / keyint_min=24 / scenecut=40 / intra_refresh=0 / rc_lookahead=40 / rc=abr / mbtree=1 / bitrate=3500 / ratetol=1.0 / qcomp=0.60 / qpmin=0 / qpmax=69 / qpstep=4 / vbv_maxrate=62500 / vbv_bufsize=78125 / nal_hrd=none / filler=0 / ip_ratio=1.40 / aq=1:1.00
    Default                     : Yes
    Forced                      : No
    Color range                 : Limited
    Color primaries             : BT.709
    Transfer characteristics    : BT.709
    Matrix coefficients         : BT.709
    Statistics Tags Issue       : mkvmerge v10.0.0 ('To Drown In You') 64bit 2017-08-27 00:11:02 / mkvmerge v10.0.0 ('To Drown In You') 64bit 2017-08-27 00:11:02 / UTC 2017-08-26T23:37:11Z
    FromStats_BitRate           : 3374384
    FromStats_Duration          : 01:32:38.804000000
    FromStats_FrameCount        : 133278
    FromStats_StreamSize        : 2344693095

    Audio #1
    ID                          : 2
    Format                      : AC-3
    Format/Info                 : Audio Coding 3
    Format settings, Endianness : Big
    Codec ID                    : A_AC3
    Duration                    : 1 h 32 min
    Bit rate mode               : Constant
    Bit rate                    : 256 kb/s
    Channel(s)                  : 2 channels
    Channel positions           : Front: L R
    Sampling rate               : 48.0 kHz
    Frame rate                  : 31.250 FPS (1536 spf)
    Bit depth                   : 16 bits
    Compression mode            : Lossy
    Delay relative to video     : -5 ms
    Stream size                 : 170 MiB (6%)
    Title                       : Stereo
    Language                    : Spanish
    Service kind                : Complete Main
    Default                     : Yes
    Forced                      : No
    Statistics Tags Issue       : mkvmerge v10.0.0 ('To Drown In You') 64bit 2017-08-27 00:11:02 / mkvmerge v10.0.0 ('To Drown In You') 64bit 2017-08-27 00:11:02 / UTC 2017-08-26T23:37:11Z
    FromStats_BitRate           : 256000
    FromStats_Duration          : 01:32:38.816000000
    FromStats_FrameCount        : 173713
    FromStats_StreamSize        : 177882112

    Audio #2
    ID                          : 3
    Format                      : AC-3
    Format/Info                 : Audio Coding 3
    Format settings, Endianness : Big
    Codec ID                    : A_AC3
    Duration                    : 1 h 32 min
    Bit rate mode               : Constant
    Bit rate                    : 384 kb/s
    Channel(s)                  : 6 channels
    Channel positions           : Front: L C R, Side: L R, LFE
    Sampling rate               : 48.0 kHz
    Frame rate                  : 31.250 FPS (1536 spf)
    Bit depth                   : 16 bits
    Compression mode            : Lossy
    Delay relative to video     : -5 ms
    Stream size                 : 254 MiB (10%)
    Title                       : Surround
    Language                    : English
    Service kind                : Complete Main
    Default                     : No
    Forced                      : No
    Statistics Tags Issue       : mkvmerge v10.0.0 ('To Drown In You') 64bit 2017-08-27 00:11:02 / mkvmerge v10.0.0 ('To Drown In You') 64bit 2017-08-27 00:11:02 / UTC 2017-08-26T23:37:11Z
    FromStats_BitRate           : 384000
    FromStats_Duration          : 01:32:38.816000000
    FromStats_FrameCount        : 173713
    FromStats_StreamSize        : 266823168

    Text #1
    ID                          : 4
    Format                      : UTF-8
    Codec ID                    : S_TEXT/UTF8
    Codec ID/Info               : UTF-8 Plain Text
    Language                    : Spanish
    Default                     : Yes
    Forced                      : No
    Statistics Tags Issue       : mkvmerge v10.0.0 ('To Drown In You') 64bit 2017-08-27 00:11:02 / mkvmerge v10.0.0 ('To Drown In You') 64bit 2017-08-27 00:11:02 / UTC 2017-08-26T23:37:11Z
    FromStats_BitRate           : 60
    FromStats_Duration          : 01:31:46.866000000
    FromStats_FrameCount        : 1261
    FromStats_StreamSize        : 41355

    Text #2
    ID                          : 5
    Format                      : UTF-8
    Codec ID                    : S_TEXT/UTF8
    Codec ID/Info               : UTF-8 Plain Text
    Language                    : English
    Default                     : No
    Forced                      : No
    Statistics Tags Issue       : mkvmerge v10.0.0 ('To Drown In You') 64bit 2017-08-27 00:11:02 / mkvmerge v10.0.0 ('To Drown In You') 64bit 2017-08-27 00:11:02 / UTC 2017-08-26T23:37:11Z
    FromStats_BitRate           : 71
    FromStats_Duration          : 01:27:07.396000000
    FromStats_FrameCount        : 1233
    FromStats_StreamSize        : 46869

    Menu
    00:00:00.000                : :Chapter 1
    00:04:30.979                : :Chapter 2
    00:11:06.082                : :Chapter 3
    00:19:02.350                : :Chapter 4
    00:27:13.423                : :Chapter 5
    00:35:14.779                : :Chapter 6
    00:45:03.951                : :Chapter 7
    00:55:05.719                : :Chapter 8
    01:04:23.193                : :Chapter 9
    01:14:34.428                : :Chapter 10
    01:21:44.191                : :Chapter 11
    01:28:49.324                : :Chapter 12

  • Peso: 2.60 GB

Sinopsis

The Immortal Life of Henrietta Lacks tambien conocida La vida inmortal de Herietta Lacks 1080p es una película para televisión dramática que adapta el best-seller homónimo de no ficción escrito por la autora Rebecca Skloot basado en la vida de Henrietta Lacks y el estudio del cultivo celular inmortal. Esta adaptación está producida por HBO, de la mano de Alan Ball (creador de True Blood y A dos metros bajo tierra) y la presentadora de televisión y actriz nominada al Oscar Oprah Winfrey (El color púrpura), quien también protagoniza el proyecto.

Henrietta Lacks fue una mujer afroamericana diagnosticada con cáncer cervical en 1950. Durante casi un año fue tratada en el hospital Johns Hopkins de Baltimore, el único hospital en el área que atendía pacientes negros. A lo largo de su tratamiento, dos muestras de células de su tumor canceroso fueron tomadas sin su conocimiento y sin que ella diera consentimiento alguno. Estas muestras, estudiadas por el científico George Otto Gey, sirvieron para el cultivo de células HeLa, comúnmente usadas en la investigación biomédica contemporánea. Henrietta murió a los 31 años por envenenamiento uremico (insuficiencia renal) y tras su muerte, la autopsia demostró que el cáncer había hecho metástasis por todo su cuerpo.

Ficha técnica

Video trailer de la película

Enlaces de descarga

Descargar The Immortal Life of Henrietta Lacks (2017) 1080p Latino
Descargar

dpeliculas

Aportes de DPeliculasHDmega la pass es:dpeliculashdmega.org Aportes de CinemaniaHD la pass es:cinemaniahdd.com

Películas relacionadas

  • La montaña entre nosotros (2017) 1080p Latino

    2017
    La montaña entre nosotros (2017) 1080p Latino

    0.0 1h 43m 2017

    Adaptación de la novela de Charles Martin. La historia sigue a dos personas distintas, Ashley es una...

    Director: Tim Macarthur

    Género: Aventura

    Actores: Waleed Zuaiter

  • El francotirador (1978) Full 1080p Latino

    1978
    El francotirador (1978) Full 1080p Latino

    0.0 3h 2m 1978

    Descargar Pelicula El francotirador 1978 hd latino Unos amigos de un pequeño pueblo industrial acuden...

    Director: Michael Cimino

    Género: Drama

    Actores: Vitoon Winwitoon

  • Arrow (2017) Temporada 6 WEBDL 1080p Latino

    2012
    Arrow (2017) Temporada 6 WEBDL 1080p Latino

    2.3 0h 42m 2012

    Con el futuro del equipo pendiendo de un hilo, Arrow le dio una nueva definición a la frase “explotar...

    Director: Marc Guggenheim

    Género: Acción

    Actores: Willa Holland

Comentarios 1
  • JUAN CARLOS - 27 agosto, 2017

    Parece interesante, habrá que descargarla.