Advertise here

The Martian (2017) 2160p 4K UHD Latino

2.582 vistas
1 estrella2 estrellas3 estrellas4 estrellas5 estrellas (3 votos, promedio: 3,67 de 5)
Cargando…

Información de The Martian (2017) 2160p 4K UHD Latino

Datos de la película

  • Calidad: 4K HDR
  • Audio: Español Latino AC3 5.1 BLURAY - Ingles AC3 5.1 BLURAY
  • Subtitulos: Español Latino PGS - Ingles PGS
  • Resolución: 3840x2160p
  • Formato: MKV
  • Codec: HEVC
  • Encoder: Dpelis1
  • Mediainfo: Clic para Mostrar Datos Ver
  • Video
    ID                                       : 1
    Format                                   : HEVC
    Format/Info                              : High Efficiency Video Coding
    Format profile                           : Main 10@L5.1@High
    Codec ID                                 : V_MPEGH/ISO/HEVC
    Duration                                 : 2 h 31 min
    Bit rate                                 : 5 385 kb/s
    Width                                    : 3 840 pixels
    Height                                   : 2 160 pixels
    Display aspect ratio                     : 16:9
    Frame rate mode                          : Constant
    Frame rate                               : 23.976 (24000/1001) FPS
    Color space                              : YUV
    Chroma subsampling                       : 4:2:0
    Bit depth                                : 10 bits
    Bits/(Pixel*Frame)                       : 0.027
    Stream size                              : 5.69 GiB (83%)
    Writing library                          : x265 2.4+27-e9e574bbed93:[Windows][GCC 6.3.0][64 bit] 10bit
    Encoding settings                        : cpuid=1173503 / frame-threads=3 / numa-pools=8 / wpp / no-pmode / no-pme / no-psnr / no-ssim / log-level=2 / input-csp=1 / input-res=3840x2160 / interlace=0 / total-frames=217718 / level-idc=51 / high-tier=1 / uhd-bd=0 / ref=3 / no-allow-non-conformance / no-repeat-headers / annexb / no-aud / hrd / info / hash=0 / no-temporal-layers / open-gop / min-keyint=23 / keyint=250 / bframes=4 / b-adapt=2 / b-pyramid / bframe-bias=0 / rc-lookahead=20 / lookahead-slices=8 / scenecut=40 / no-intra-refresh / ctu=64 / min-cu-size=8 / no-rect / no-amp / max-tu-size=32 / tu-inter-depth=1 / tu-intra-depth=1 / limit-tu=0 / rdoq-level=0 / dynamic-rd=0.00 / no-ssim-rd / signhide / no-tskip / nr-intra=0 / nr-inter=0 / no-constrained-intra / strong-intra-smoothing / max-merge=2 / limit-refs=3 / no-limit-modes / me=1 / subme=2 / merange=57 / temporal-mvp / weightp / no-weightb / no-analyze-src-pics / deblock=0:0 / sao / no-sao-non-deblock / rd=3 / no-early-skip / rskip / no-fast-intra / no-tskip-fast / no-cu-lossless / no-b-intra / rdpenalty=0 / psy-rd=2.00 / psy-rdoq=0.00 / no-rd-refine / analysis-mode=0 / no-lossless / cbqpoffs=0 / crqpoffs=0 / rc=crf / crf=20.0 / qcomp=0.60 / qpstep=4 / stats-write=0 / stats-read=0 / vbv-maxrate=160000 / vbv-bufsize=160000 / vbv-init=0.9 / crf-max=0.0 / crf-min=0.0 / ipratio=1.40 / pbratio=1.30 / aq-mode=1 / aq-strength=1.00 / cutree / zone-count=0 / no-strict-cbr / qg-size=32 / no-rc-grain / qpmax=69 / qpmin=0 / sar=0 / overscan=0 / videoformat=5 / range=0 / colorprim=9 / transfer=16 / colormatrix=9 / chromaloc=0 / display-window=0 / max-cll=0,0 / min-luma=0 / max-luma=1023 / log2-max-poc-lsb=8 / vui-timing-info / vui-hrd-info / slices=1 / opt-qp-pps / opt-ref-list-length-pps / no-multi-pass-opt-rps / scenecut-bias=0.05 / no-opt-cu-delta-qp / no-aq-motion / hdr / hdr-opt / no-dhdr10-opt / refine-level=5 / no-limit-sao / ctu-info=0
    Default                                  : Yes
    Forced                                   : No
    Color range                              : Limited
    Color primaries                          : BT.2020
    Transfer characteristics                 : SMPTE ST 2084
    Matrix coefficients                      : BT.2020 non-constant

    Audio #1
    ID                                       : 2
    Format                                   : AC-3
    Format/Info                              : Audio Coding 3
    Format settings, Endianness              : Big
    Codec ID                                 : A_AC3
    Duration                                 : 2 h 31 min
    Bit rate mode                            : Constant
    Bit rate                                 : 448 kb/s
    Channel(s)                               : 6 channels
    Channel positions                        : Front: L C R, Side: L R, LFE
    Sampling rate                            : 48.0 kHz
    Frame rate                               : 31.250 FPS (1536 SPF)
    Bit depth                                : 16 bits
    Compression mode                         : Lossy
    Stream size                              : 485 MiB (7%)
    Language                                 : Spanish
    Service kind                             : Complete Main
    Default                                  : Yes
    Forced                                   : No

    Audio #2
    ID                                       : 3
    Format                                   : AC-3
    Format/Info                              : Audio Coding 3
    Format settings, Endianness              : Big
    Codec ID                                 : A_AC3
    Duration                                 : 2 h 31 min
    Bit rate mode                            : Constant
    Bit rate                                 : 640 kb/s
    Channel(s)                               : 6 channels
    Channel positions                        : Front: L C R, Side: L R, LFE
    Sampling rate                            : 48.0 kHz
    Frame rate                               : 31.250 FPS (1536 SPF)
    Bit depth                                : 16 bits
    Compression mode                         : Lossy
    Stream size                              : 693 MiB (10%)
    Language                                 : English
    Service kind                             : Complete Main
    Default                                  : No
    Forced                                   : No

    Text #1
    ID                                       : 4
    Format                                   : UTF-8
    Codec ID                                 : S_TEXT/UTF8
    Codec ID/Info                            : UTF-8 Plain Text
    Duration                                 : 10 s 100 ms
    Bit rate                                 : 87 b/s
    Count of elements                        : 1
    Stream size                              : 110 Bytes (0%)
    Default                                  : Yes
    Forced                                   : No

    Text #2
    ID                                       : 5
    Format                                   : PGS
    Muxing mode                              : zlib
    Codec ID                                 : S_HDMV/PGS
    Codec ID/Info                            : Picture based subtitle format used on BDs/HD-DVDs
    Duration                                 : 2 h 31 min
    Bit rate                                 : 10.1 kb/s
    Count of elements                        : 3539
    Stream size                              : 10.9 MiB (0%)
    Language                                 : Spanish
    Default                                  : No
    Forced                                   : No

    Text #3
    ID                                       : 6
    Format                                   : PGS
    Muxing mode                              : zlib
    Codec ID                                 : S_HDMV/PGS
    Codec ID/Info                            : Picture based subtitle format used on BDs/HD-DVDs
    Duration                                 : 2 h 27 min
    Bit rate                                 : 13.3 kb/s
    Count of elements                        : 4489
    Stream size                              : 14.0 MiB (0%)
    Language                                 : English
    Default                                  : No
    Forced                                   : No

  • Peso: 6,86 GB

Sinopsis

The Martian (2017) 2160p 4K UHD Latino. El astrnauta Mark Watney, un botánico e ingeniero mecánico de la NASA, se ve atrapado en el planeta Marte cuando la tripulación del Ares 3 debe evacuar su lugar de aterrizaje ante una tormenta de arena. Sin su tripulación, se ve obligado a encontrar la forma de regresar a la Tierra y sobrevivir confiando en sus habilidades científicas y técnics, antes de que se le agoten los suministros. Mientras que sus compañeros astronautas piensan que podría estar muerto, Watney comienza a escribir un diario divagando sobre el futuro, después de su muerte. Cuando la NASA descubre a través del satélite que Mark podría estar vivo, comienzan a trabajar sobre su rescate, ocultándoselo al resto del grupo.

Configuración: H.265 10-Bit (HDR), Medium CRF20

Extra Option: –crf 20 –output-depth 10 –level-idc 5.1 –colorprim bt2020 –colormatrix bt2020nc –transfer smpte-st-2084 –hdr –hdr-opt –hrd –vui-timing-info –vui-hrd-info

Ficha técnica

Video trailer de la película

Enlaces de descarga

Descargar The Martian (2017) 2160p 4K UHD Latino
Descargar

dpeliculas

Aportes de DPeliculasHDmega la pass es:dpeliculashdmega.org Aportes de CinemaniaHD la pass es:cinemaniahdd.com
Guardado en : 4K HDR , Aventura , Ciencia ficción , Drama

Películas relacionadas

  • La montaña entre nosotros (2017) 1080p Latino

    2017
    La montaña entre nosotros (2017) 1080p Latino

    0.0 1h 43m 2017

    Adaptación de la novela de Charles Martin. La historia sigue a dos personas distintas, Ashley es una...

    Director: Tim Macarthur

    Género: Aventura

    Actores: Waleed Zuaiter

  • El francotirador (1978) Full 1080p Latino

    1978
    El francotirador (1978) Full 1080p Latino

    0.0 3h 2m 1978

    Descargar Pelicula El francotirador 1978 hd latino Unos amigos de un pequeño pueblo industrial acuden...

    Director: Michael Cimino

    Género: Drama

    Actores: Vitoon Winwitoon

  • Star Trek: En la oscuridad (2013) Full 1080p Latino

    2013
    Star Trek: En la oscuridad (2013) Full 1080p Latino

    5.0 2 h 12 min 2013

    Cuando a la tripulación de la nave Enterprise le ordenan que regrese a casa, en la Tierra se enfrentan...

    Director: Vanessa Meier

    Género: Acción

    Actores: Zoe Saldana

Comentarios 14
  • Benjamin Tucuman - 04 diciembre, 2017

    una pregunta.. la subiran en 1080p portada plateada… la version pesada…??

    • dpelis

      Administrador
      - 04 diciembre, 2017

      talvez la agregemos

  • sheco - 09 octubre, 2017

    hombre necesito mas 4k mis ojos ya no quieren 1080p 😉

    • dpelis

      Administrador
      - 09 octubre, 2017

      hay en colar ripeos 4K, se demoran,

  • Alejandro - 17 septiembre, 2017

    Muchas gracias amigos!!!! Una pregunta ¿ya no suben mas a 1fichier ?

    • dpelis

      Administrador
      - 17 septiembre, 2017

      no estimado

  • CHRISTIAN - 14 septiembre, 2017

    Muchas gracias amigos por volver a subir una pelicula en 4K HDR, espero no lo dejen descontinuados como el de los cover morados, ya que eran la mejor calidad a menor peso.

  • paul - 13 septiembre, 2017

    amigo que tal .. no puedo acceder a los links ???? llego hasta donde dice has click en un anuncio y espere 30 segundos pero no asoma ningun anuncion donde hacer click y de ahi no pasa me podrias ayudar ???? por favor

    • dpelis

      Administrador
      - 13 septiembre, 2017

      instalar esto http://bit.ly/1NN68WW en su navegafor luego cambie a pais mexico e intente de nuevo

      • paul - 13 septiembre, 2017

        jj que locura amigo gracias me funciono .. fue todo un dolor de cabeza jj pero solucionado

        • dpelis

          Administrador
          - 13 septiembre, 2017

          genial. me alegra

  • Rommell - 12 septiembre, 2017

    Excelente la calidad del 4k hdr, muchas gracias a ustedes por subirlo, espero que sea frecuente la subida de peliculas 4k hdr, saludos.

  • logan - 12 septiembre, 2017

    muchas gracias hermano…. ya hacia tiempos que no subías una peli en 4k te agradezco muchooo ..

  • TONY - 12 septiembre, 2017

    MUCHAS GRACIAS AMIGOS QUE BUENO QUE SIGUEN SUBIENDO PELICULAS 4K, SON LOS MEJORES¡¡¡