Advertise here

Transformers: El último caballero (2017) 3D OU Full Latino

1.599 vistas
1 estrella2 estrellas3 estrellas4 estrellas5 estrellas (1 votos, promedio: 5,00 de 5)
Cargando…

Información de Transformers: El último caballero (2017) 3D OU Full Latino

Datos de la película

  • Calidad: Full 1080p
  • Audio: Español Latino AC3 5.1 BLURAY - DTS-HD Master 7.1 BLURAY
  • Subtitulos: Español Latino PGS - Ingles PGS
  • Resolución: 1920x1080p
  • Formato: MKV
  • Codec: H.264
  • Encoder: Dpelis1
  • Mediainfo: Clic para Mostrar Datos Ver
  • Video
    ID                                       : 1
    Format                                   : AVC
    Format/Info                              : Advanced Video Codec
    Format profile                           : High@L4.1
    Format settings, CABAC                   : Yes
    Format settings, RefFrames               : 4 frames
    Codec ID                                 : V_MPEG4/ISO/AVC
    Duration                                 : 2 h 34 min
    Width                                    : 1 920 pixels
    Height                                   : 1 080 pixels
    Display aspect ratio                     : 16:9
    Frame rate mode                          : Constant
    Frame rate                               : 23.976 (24000/1001) FPS
    Color space                              : YUV
    Chroma subsampling                       : 4:2:0
    Bit depth                                : 8 bits
    Scan type                                : Progressive
    Writing library                          : x264 core 148 r2708 86b7198
    Encoding settings                        : cabac=1 / ref=4 / deblock=1:0:0 / analyse=0x3:0x133 / me=esa / subme=10 / psy=1 / psy_rd=1.00:0.00 / mixed_ref=1 / me_range=24 / chroma_me=1 / trellis=2 / 8x8dct=1 / cqm=0 / deadzone=21,11 / fast_pskip=1 / chroma_qp_offset=-2 / threads=34 / lookahead_threads=5 / sliced_threads=0 / nr=0 / decimate=1 / interlaced=0 / bluray_compat=0 / constrained_intra=0 / bframes=8 / b_pyramid=2 / b_adapt=2 / b_bias=0 / direct=3 / weightb=1 / open_gop=0 / weightp=2 / keyint=240 / keyint_min=24 / scenecut=40 / intra_refresh=0 / rc_lookahead=60 / rc=crf / mbtree=1 / crf=20.0 / qcomp=0.60 / qpmin=0 / qpmax=69 / qpstep=4 / vbv_maxrate=62500 / vbv_bufsize=78125 / crf_max=0.0 / nal_hrd=none / filler=0 / ip_ratio=1.40 / aq=1:1.00
    Default                                  : Yes
    Forced                                   : No
    Color range                              : Limited
    Color primaries                          : BT.709
    Transfer characteristics                 : BT.709
    Matrix coefficients                      : BT.709

    Audio #1
    ID                                       : 2
    Format                                   : AC-3
    Format/Info                              : Audio Coding 3
    Format settings, Endianness              : Big
    Codec ID                                 : A_AC3
    Duration                                 : 2 h 34 min
    Bit rate mode                            : Constant
    Bit rate                                 : 640 kb/s
    Channel(s)                               : 6 channels
    Channel positions                        : Front: L C R, Side: L R, LFE
    Sampling rate                            : 48.0 kHz
    Frame rate                               : 31.250 FPS (1536 SPF)
    Bit depth                                : 16 bits
    Compression mode                         : Lossy
    Stream size                              : 708 MiB (5%)
    Title                                    : Surround
    Language                                 : Spanish
    Service kind                             : Complete Main
    Default                                  : Yes
    Forced                                   : No

    Audio #2
    ID                                       : 3
    Format                                   : DTS
    Format/Info                              : Digital Theater Systems
    Format profile                           : MA / Core
    Mode                                     : 16
    Format settings, Endianness              : Big
    Codec ID                                 : A_DTS
    Duration                                 : 2 h 34 min
    Bit rate mode                            : Variable / Constant
    Bit rate                                 : Unknown / 1 509 kb/s
    Channel(s)                               : 8 channels / 6 channels
    Channel positions                        : Front: L C R, Side: L R, Back: L R, LFE / Front: L C R, Side: L R, LFE
    Sampling rate                            : 48.0 kHz
    Frame rate                               : 93.750 FPS (512 SPF)
    Bit depth                                : 24 bits
    Compression mode                         : Lossless / Lossy
    Title                                    : Surround
    Language                                 : English
    Default                                  : No
    Forced                                   : No

    Audio #3
    ID                                       : 4
    Format                                   : AC-3
    Format/Info                              : Audio Coding 3
    Format settings, Endianness              : Big
    Codec ID                                 : A_AC3
    Duration                                 : 2 h 34 min
    Bit rate mode                            : Constant
    Bit rate                                 : 640 kb/s
    Channel(s)                               : 6 channels
    Channel positions                        : Front: L C R, Side: L R, LFE
    Sampling rate                            : 48.0 kHz
    Frame rate                               : 31.250 FPS (1536 SPF)
    Bit depth                                : 16 bits
    Compression mode                         : Lossy
    Stream size                              : 708 MiB (5%)
    Title                                    : Surround
    Language                                 : English
    Service kind                             : Complete Main
    Default                                  : No
    Forced                                   : No

    Text #1
    ID                                       : 5
    Format                                   : PGS
    Codec ID                                 : S_HDMV/PGS
    Codec ID/Info                            : Picture based subtitle format used on BDs/HD-DVDs
    Language                                 : Spanish
    Default                                  : No
    Forced                                   : No

    Text #2
    ID                                       : 6
    Format                                   : PGS
    Codec ID                                 : S_HDMV/PGS
    Codec ID/Info                            : Picture based subtitle format used on BDs/HD-DVDs
    Language                                 : English
    Default                                  : No
    Forced                                   : No

    Menu
    00:00:00.000                             : :(01)00:00:00:000
    00:06:35.353                             : :(02)00:06:35:269
    00:14:02.633                             : :(03)00:14:02:633
    00:21:44.929                             : :(04)00:21:44:928
    00:27:52.462                             : :(05)00:27:52:420
    00:33:53.114                             : :(06)00:33:53:072
    00:40:08.072                             : :(07)00:40:08:072
    00:46:58.149                             : :(08)00:46:58:106
    00:53:24.952                             : :(09)00:53:24:951
    01:02:02.135                             : :(10)01:02:02:093
    01:08:46.247                             : :(11)01:08:46:247
    01:14:36.430                             : :(12)01:14:36:388
    01:20:09.388                             : :(13)01:20:09:346
    01:29:12.597                             : :(14)01:29:12:555
    01:37:58.664                             : :(15)01:37:58:664
    01:44:56.749                             : :(16)01:44:56:748
    01:51:14.668                             : :(17)01:51:14:668
    01:57:58.655                             : :(18)01:57:58:613
    02:06:08.895                             : :(19)02:06:08:894
    02:10:53.262                             : :(20)02:10:53:262
    02:16:00.319                             : :(21)02:16:00:318
    02:21:41.785                             : :(22)02:21:41:784
    02:25:16.458                             : :(23)02:25:16:457

  • Peso: 14,1 GB

Sinopsis

Descargar gratis Transformers: El último caballero (2017) 3D OU Full Latino. Ds especies en guerra: una de carne y hueso, la otra de metal. El Último Caballero rompe con el mito original de la franquicia de Transformers y redefine lo que significa ser un héroe. Humanos y Transformers están en guerra y Optimus Prime se ha ido. La llave para salvar nuestro futuro está enterrada en los secretos del pasado, en la historia oculta de los Transformers en la Tierra. Salvar a nuestro mundo está en manos de una alianza única: Cade Yeager (Mark Wahlberg); Bumblebee; un Lord Inglés (Sir Anthony Hopkins); y una profesora de la Universidad de Oxford (Laura Haddock). Hay un momento en la vida de todo ser humano en la que recibimos el llamado para hacer la diferencia. En Transformers: El Último Caballero los perseguidos se convertirán en héroes; los héroes se convertirán en villanos y sólo un mundo sobrevivirá: el de ellos o el nuestro. Quinta película de Transformers dirigida por Michael Bay.

Ficha técnica

Video trailer de la película

Enlaces de descarga

Descargar Transformers: El último caballero (2017) 3D OU Full Latino
Descargar

dpeliculas

Aportes de DPeliculasHDmega la pass es:dpeliculashdmega.org Aportes de CinemaniaHD la pass es:cinemaniahdd.com

Películas relacionadas

  • Dulce venganza (2016) 1080p Latino

    2016
    Dulce venganza (2016) 1080p Latino

    2.0 1 h 34 min 2016

    Un asesino de élite llamado Frank, tras ser traicionado por unos gángsters, es enviado a una cirujana...

    Director: Walter Hill

    Género: Acción

    Actores: Zak Santiago

  • Línea mortal: Al límite (2017) 1080p Latino

    2017
    Línea mortal: Al límite (2017) 1080p Latino

    0.0 1 h 49 min 2017

    Un grupo de jóvenes estudiantes de medicina llevan a cabo un experimento que implica una muerte provocada...

    Director: Niels Arden Oplev

    Género: Ciencia ficción

    Actores: Wendy Raquel Robinson

  • La LEGO Ninjago pelicula (2017) Full 1080p Latino

    2017
    La LEGO Ninjago pelicula (2017) Full 1080p Latino

    4.0 1h 40m 2017

    Una tierra lejana amenazada por la oscuridad. En este lugar llamado Ninjago, las fuerzas del bien y del...

    Director: Paul Fisher

    Género: Acción

    Actores: Zach Woods

  • La jugada maestra (2015) 1080p Latino

    2015
    La jugada maestra (2015) 1080p Latino

    0.0 1h 54m 2015

    "Pawn Sacrifice" (El sacrificio del peón) narra la historia de la preparación y del legendario enfrentamiento...

    Director: Edward Zwick

    Género: Drama

    Actores: Zach Fraser

Comentarios 0