Advertise here

Un espacio entre nosotros (2017) 1080p Latino

1.890 vistas
1 estrella2 estrellas3 estrellas4 estrellas5 estrellas (2 votos, promedio: 3,50 de 5)
Cargando…

Información de Un espacio entre nosotros (2017) 1080p Latino

un espacio entre nosotros 1080p latino megahd

Datos de la película

  • Calidad: 1080p
  • Audio: Español Latino AC3 5.1 DVD - Ingles AC3 5.1 BLURAY
  • Subtitulos: Español Latino SRT - Ingles SRT
  • Resolución: 1920x800p
  • Formato: MKV
  • Codec: H.264
  • Encoder: Dpelis
  • Mediainfo: Clic para Mostrar Datos Ver
  • The.Space.Between.Us.2017.1080p.Latino.mkv
    Format                      : Matroska
    Format version              : Version 4 / Version 2
    File size                   : 3.56 GiB
    Duration                    : 2 h 0 min
    Overall bit rate            : 4 226 kb/s
    Movie name                  : DPeliculasHDMega.ORG
    Encoded date                : UTC 2017-05-30 03:56:22 / UTC 2017-05-29T18:35:59Z
    Writing application         : mkvmerge v10.0.0 ('To Drown In You') 64bit
    Writing library             : libebml v1.3.4 + libmatroska v1.4.5 / Lavf57.7.2

    Video
    ID                          : 1
    Format                      : AVC
    Format/Info                 : Advanced Video Codec
    Format profile              : High@L4.1
    Format settings, CABAC      : Yes
    Format settings, ReFrames   : 4 frames
    Codec ID                    : V_MPEG4/ISO/AVC
    Duration                    : 2 h 0 min
    Bit rate                    : 3 310 kb/s
    Nominal bit rate            : 3 500 kb/s
    Width                       : 1 920 pixels
    Height                      : 800 pixels
    Display aspect ratio        : 2.40:1
    Frame rate mode             : Constant
    Frame rate                  : 23.976 (24000/1001) FPS
    Color space                 : YUV
    Chroma subsampling          : 4:2:0
    Bit depth                   : 8 bits
    Scan type                   : Progressive
    Bits/(Pixel*Frame)          : 0.090
    Stream size                 : 2.79 GiB (78%)
    Writing library             : x264 core 148 r2708 86b7198
    Encoding settings           : cabac=1 / ref=3 / deblock=1:0:0 / analyse=0x3:0x113 / me=hex / subme=7 / psy=1 / psy_rd=1.00:0.00 / mixed_ref=1 / me_range=16 / chroma_me=1 / trellis=1 / 8x8dct=1 / cqm=0 / deadzone=21,11 / fast_pskip=1 / chroma_qp_offset=-2 / threads=12 / lookahead_threads=2 / sliced_threads=0 / nr=0 / decimate=1 / interlaced=0 / bluray_compat=0 / constrained_intra=0 / bframes=3 / b_pyramid=2 / b_adapt=1 / b_bias=0 / direct=1 / weightb=1 / open_gop=0 / weightp=2 / keyint=240 / keyint_min=24 / scenecut=40 / intra_refresh=0 / rc_lookahead=40 / rc=abr / mbtree=1 / bitrate=3500 / ratetol=1.0 / qcomp=0.60 / qpmin=0 / qpmax=69 / qpstep=4 / vbv_maxrate=62500 / vbv_bufsize=78125 / nal_hrd=none / filler=0 / ip_ratio=1.40 / aq=1:1.00
    Default                     : Yes
    Forced                      : No
    Color range                 : Limited
    Color primaries             : BT.709
    Transfer characteristics    : BT.709
    Matrix coefficients         : BT.709
    Statistics Tags Issue       : mkvmerge v10.0.0 ('To Drown In You') 64bit 2017-05-30 03:56:22 / mkvmerge v10.0.0 ('To Drown In You') 64bit 2017-05-30 03:56:22 / UTC 2017-05-29T18:35:59Z
    FromStats_BitRate           : 3391669
    FromStats_Duration          : 02:00:43.236000000
    FromStats_FrameCount        : 173664
    FromStats_StreamSize        : 3070832759

    Audio #1
    ID                          : 2
    Format                      : AC-3
    Format/Info                 : Audio Coding 3
    Format settings, Endianness : Big
    Codec ID                    : A_AC3
    Duration                    : 2 h 0 min
    Bit rate mode               : Constant
    Bit rate                    : 448 kb/s
    Channel(s)                  : 6 channels
    Channel positions           : Front: L C R, Side: L R, LFE
    Sampling rate               : 48.0 kHz
    Frame rate                  : 31.250 FPS (1536 spf)
    Bit depth                   : 16 bits
    Compression mode            : Lossy
    Delay relative to video     : 195 ms
    Stream size                 : 387 MiB (11%)
    Language                    : Spanish
    Service kind                : Complete Main
    Default                     : Yes
    Forced                      : No
    Statistics Tags Issue       : mkvmerge v10.0.0 ('To Drown In You') 64bit 2017-05-30 03:56:22 / mkvmerge v10.0.0 ('To Drown In You') 64bit 2017-05-30 03:56:22 / UTC 2017-05-29T18:35:59Z
    FromStats_BitRate           : 448000
    FromStats_Duration          : 02:00:42.592000000
    FromStats_FrameCount        : 226331
    FromStats_StreamSize        : 405585152

    Audio #2
    ID                          : 3
    Format                      : AC-3
    Format/Info                 : Audio Coding 3
    Format settings, Endianness : Big
    Codec ID                    : A_AC3
    Duration                    : 2 h 0 min
    Bit rate mode               : Constant
    Bit rate                    : 384 kb/s
    Channel(s)                  : 6 channels
    Channel positions           : Front: L C R, Side: L R, LFE
    Sampling rate               : 48.0 kHz
    Frame rate                  : 31.250 FPS (1536 spf)
    Bit depth                   : 16 bits
    Compression mode            : Lossy
    Delay relative to video     : -5 ms
    Stream size                 : 332 MiB (9%)
    Title                       : Surround
    Language                    : English
    Service kind                : Complete Main
    Default                     : No
    Forced                      : No
    Statistics Tags Issue       : mkvmerge v10.0.0 ('To Drown In You') 64bit 2017-05-30 03:56:22 / mkvmerge v10.0.0 ('To Drown In You') 64bit 2017-05-30 03:56:22 / UTC 2017-05-29T18:35:59Z
    FromStats_BitRate           : 384000
    FromStats_Duration          : 02:00:43.264000000
    FromStats_FrameCount        : 226352
    FromStats_StreamSize        : 347676672

    Text #1
    ID                          : 4
    Format                      : UTF-8
    Codec ID                    : S_TEXT/UTF8
    Codec ID/Info               : UTF-8 Plain Text
    Language                    : Spanish
    Default                     : No
    Forced                      : No
    Statistics Tags Issue       : mkvmerge v10.0.0 ('To Drown In You') 64bit 2017-05-30 03:56:22 / mkvmerge v10.0.0 ('To Drown In You') 64bit 2017-05-30 03:56:22 / UTC 2017-05-29T18:35:59Z
    FromStats_BitRate           : 51
    FromStats_Duration          : 01:53:00.369000000
    FromStats_FrameCount        : 1356
    FromStats_StreamSize        : 43868

    Text #2
    ID                          : 5
    Format                      : UTF-8
    Codec ID                    : S_TEXT/UTF8
    Codec ID/Info               : UTF-8 Plain Text
    Language                    : English
    Default                     : No
    Forced                      : No
    Statistics Tags Issue       : mkvmerge v10.0.0 ('To Drown In You') 64bit 2017-05-30 03:56:22 / mkvmerge v10.0.0 ('To Drown In You') 64bit 2017-05-30 03:56:22 / UTC 2017-05-29T18:35:59Z
    FromStats_BitRate           : 46
    FromStats_Duration          : 01:51:40.152000000
    FromStats_FrameCount        : 1375
    FromStats_StreamSize        : 39213

    Text #3
    ID                          : 6
    Format                      : UTF-8
    Codec ID                    : S_TEXT/UTF8
    Codec ID/Info               : UTF-8 Plain Text
    Language                    : Spanish
    Default                     : Yes
    Forced                      : No
    Statistics Tags Issue       : mkvmerge v10.0.0 ('To Drown In You') 64bit 2017-05-30 03:56:22 / mkvmerge v10.0.0 ('To Drown In You') 64bit 2017-05-30 03:56:22 / UTC 2017-05-29T18:35:59Z
    FromStats_BitRate           : 91
    FromStats_Duration          : 00:00:10.100000000
    FromStats_FrameCount        : 1
    FromStats_StreamSize        : 115

    Menu
    00:00:00.000                : :00:00:00.000
    00:06:16.126                : :00:06:16.126
    00:11:09.210                : :00:11:09.210
    00:18:50.129                : :00:18:50.129
    00:23:06.176                : :00:23:06.176
    00:28:49.686                : :00:28:49.686
    00:33:10.030                : :00:33:10.030
    00:38:24.093                : :00:38:24.093
    00:43:59.804                : :00:43:59.804
    00:49:44.607                : :00:49:44.607
    00:53:36.797                : :00:53:36.797
    00:58:50.736                : :00:58:50.736
    01:06:48.254                : :01:06:48.254
    01:15:40.327                : :01:15:40.327
    01:22:24.523                : :01:22:24.523
    01:30:11.364                : :01:30:11.364
    01:36:16.062                : :01:36:16.062
    01:43:41.215                : :01:43:41.215
    01:48:45.728                : :01:48:45.728
    01:53:45.485                : :01:53:45.402

  • Peso: 3.56 GB

Sinopsis

Descargar The Space Between Us 1080p Latino. Gardner Elliot es el primer ser humano nacido en Marte, el hijo de un astronauta americano que se ha embarcado en una misión espacial. El joven conoce sólo catorce personas en sus dieciséis años, y ni siquiera sabe quién es su padre. Pero, ávido de respuestas, mirando a la banda de rodadura sobre el origen de su padre. Así comienza una amistad especial lejos de Tulsa, Colorado adolescente inteligente que vive en la Tierra. Gardner finalmente tiene la oportunidad de ir al planeta azul para descubrir todas las maravillas que ha leído nunca, y conocer a Tulsa encontrar a su padre. Pero los científicos hacen un importante problema que podría impedir que el logro de su sueño

Ficha técnica

Video trailer de la película

Enlaces de descarga

Descargar Un espacio entre nosotros (2017) 1080p Latino
Descargar

dpeliculas

Aportes de DPeliculasHDmega la pass es:dpeliculashdmega.org Aportes de CinemaniaHD la pass es:cinemaniahdd.com
Guardado en : Aventura , Ciencia ficción , Drama , Romance

Películas relacionadas

  • Star Trek: En la oscuridad (2013) Full 1080p Latino

    2013
    Star Trek: En la oscuridad (2013) Full 1080p Latino

    0.0 2 h 12 min 2013

    Cuando a la tripulación de la nave Enterprise le ordenan que regrese a casa, en la Tierra se enfrentan...

    Director: Vanessa Meier

    Género: Acción

    Actores: Zoe Saldana

  • Arrow (2017) Temporada 6 WEBDL 1080p Latino

    2012
    Arrow (2017) Temporada 6 WEBDL 1080p Latino

    2.3 0h 42m 2012

    Con el futuro del equipo pendiendo de un hilo, Arrow le dio una nueva definición a la frase “explotar...

    Director: Marc Guggenheim

    Género: Acción

    Actores: Willa Holland

  • The Flash (2017) Temporada 4 WEBDL 1080p Latino

    2014
    The Flash (2017) Temporada 4 WEBDL 1080p Latino

    2.8 0h 44m 2014

    Enfrentarse a una versión remanente de uno mismo es algo que nadie debería tener que hacer, pero eso...

    Director: Geoff Johns

    Género: Drama

    Actores: Tom Cavanagh

  • Línea mortal: Al límite (2017) 1080p Latino

    2017
    Línea mortal: Al límite (2017) 1080p Latino

    3.0 1 h 49 min 2017

    Un grupo de jóvenes estudiantes de medicina llevan a cabo un experimento que implica una muerte provocada...

    Director: Niels Arden Oplev

    Género: Ciencia ficción

    Actores: Wendy Raquel Robinson