Advertise here

Una noche fuera de control (2017) Full 1080p Latino

1.594 vistas
1 estrella2 estrellas3 estrellas4 estrellas5 estrellas (2 votos, promedio: 4,00 de 5)
Cargando…

Información de Una noche fuera de control (2017) Full 1080p Latino

Datos de la película

  • Calidad: Full 1080p
  • Audio: Español Latino AC3 5.1 BLURAY - Ingles AC3 5.1 BLURAY
  • Subtitulos: Español Latino PGS - Ingles PGS
  • Resolución: 1920x1080p
  • Formato: MKV
  • Codec: H.264
  • Encoder: Dpelis
  • Mediainfo: Clic para Mostrar Datos Ver
  • Rough night (2017) Full 1080p Latino.mkv
    Format                      : Matroska
    Format version              : Version 4 / Version 2
    File size                   : 2.83 GiB
    Duration                    : 1 h 40 min
    Overall bit rate            : 4 014 kb/s
    Movie name                  : DPeliculasHDMega.ORG
    Encoded date                : UTC 2017-08-27 22:05:34 / UTC 2017-08-27T18:12:55Z
    Writing application         : mkvmerge v10.0.0 ('To Drown In You') 64bit
    Writing library             : libebml v1.3.4 + libmatroska v1.4.5 / Lavf57.7.2

    Video
    ID                          : 1
    Format                      : AVC
    Format/Info                 : Advanced Video Codec
    Format profile              : High@L4.1
    Format settings, CABAC      : Yes
    Format settings, ReFrames   : 4 frames
    Codec ID                    : V_MPEG4/ISO/AVC
    Duration                    : 1 h 40 min
    Bit rate                    : 3 038 kb/s
    Width                       : 1 920 pixels
    Height                      : 1 080 pixels
    Display aspect ratio        : 16:9
    Frame rate mode             : Constant
    Frame rate                  : 23.976 (24000/1001) FPS
    Color space                 : YUV
    Chroma subsampling          : 4:2:0
    Bit depth                   : 8 bits
    Scan type                   : Progressive
    Bits/(Pixel*Frame)          : 0.061
    Stream size                 : 2.14 GiB (76%)
    Writing library             : x264 core 148 r2708 86b7198
    Encoding settings           : cabac=1 / ref=4 / deblock=1:0:0 / analyse=0x3:0x133 / me=esa / subme=10 / psy=1 / psy_rd=1.00:0.00 / mixed_ref=1 / me_range=24 / chroma_me=1 / trellis=2 / 8x8dct=1 / cqm=0 / deadzone=21,11 / fast_pskip=1 / chroma_qp_offset=-2 / threads=12 / lookahead_threads=2 / sliced_threads=0 / nr=0 / decimate=1 / interlaced=0 / bluray_compat=0 / constrained_intra=0 / bframes=8 / b_pyramid=2 / b_adapt=2 / b_bias=0 / direct=3 / weightb=1 / open_gop=0 / weightp=2 / keyint=240 / keyint_min=24 / scenecut=40 / intra_refresh=0 / rc_lookahead=60 / rc=crf / mbtree=1 / crf=20.0 / qcomp=0.60 / qpmin=0 / qpmax=69 / qpstep=4 / vbv_maxrate=62500 / vbv_bufsize=78125 / crf_max=0.0 / nal_hrd=none / filler=0 / ip_ratio=1.40 / aq=1:1.00
    Default                     : Yes
    Forced                      : No
    Color range                 : Limited
    Color primaries             : BT.709
    Transfer characteristics    : BT.709
    Matrix coefficients         : BT.709
    Statistics Tags Issue       : mkvmerge v10.0.0 ('To Drown In You') 64bit 2017-08-27 22:05:34 / mkvmerge v10.0.0 ('To Drown In You') 64bit 2017-08-27 22:05:34 / UTC 2017-08-27T18:12:55Z
    FromStats_BitRate           : 3044198
    FromStats_Duration          : 01:40:49.961000000
    FromStats_FrameCount        : 145054
    FromStats_StreamSize        : 2302160553

    Audio #1
    ID                          : 2
    Format                      : AC-3
    Format/Info                 : Audio Coding 3
    Format settings, Endianness : Big
    Codec ID                    : A_AC3
    Duration                    : 1 h 40 min
    Bit rate mode               : Constant
    Bit rate                    : 448 kb/s
    Channel(s)                  : 6 channels
    Channel positions           : Front: L C R, Side: L R, LFE
    Sampling rate               : 48.0 kHz
    Frame rate                  : 31.250 FPS (1536 spf)
    Bit depth                   : 16 bits
    Compression mode            : Lossy
    Delay relative to video     : 25 ms
    Stream size                 : 323 MiB (11%)
    Title                       : Surround
    Language                    : Spanish
    Service kind                : Complete Main
    Default                     : Yes
    Forced                      : No
    Statistics Tags Issue       : mkvmerge v10.0.0 ('To Drown In You') 64bit 2017-08-27 22:05:34 / mkvmerge v10.0.0 ('To Drown In You') 64bit 2017-08-27 22:05:34 / UTC 2017-08-27T18:12:55Z
    FromStats_BitRate           : 448000
    FromStats_Duration          : 01:40:50.048000000
    FromStats_FrameCount        : 189064
    FromStats_StreamSize        : 338802688

    Audio #2
    ID                          : 3
    Format                      : AC-3
    Format/Info                 : Audio Coding 3
    Format settings, Endianness : Big
    Codec ID                    : A_AC3
    Duration                    : 1 h 40 min
    Bit rate mode               : Constant
    Bit rate                    : 448 kb/s
    Channel(s)                  : 6 channels
    Channel positions           : Front: L C R, Side: L R, LFE
    Sampling rate               : 48.0 kHz
    Frame rate                  : 31.250 FPS (1536 spf)
    Bit depth                   : 16 bits
    Compression mode            : Lossy
    Stream size                 : 323 MiB (11%)
    Title                       : Surround
    Language                    : English
    Service kind                : Complete Main
    Default                     : No
    Forced                      : No
    Statistics Tags Issue       : mkvmerge v10.0.0 ('To Drown In You') 64bit 2017-08-27 22:05:34 / mkvmerge v10.0.0 ('To Drown In You') 64bit 2017-08-27 22:05:34 / UTC 2017-08-27T18:12:55Z
    FromStats_BitRate           : 448000
    FromStats_Duration          : 01:40:49.888000000
    FromStats_FrameCount        : 189059
    FromStats_StreamSize        : 338793728

    Text #1
    ID                          : 4
    Format                      : PGS
    Muxing mode                 : zlib
    Codec ID                    : S_HDMV/PGS
    Codec ID/Info               : Picture based subtitle format used on BDs/HD-DVDs
    Language                    : Spanish
    Default                     : No
    Forced                      : No
    Statistics Tags Issue       : mkvmerge v10.0.0 ('To Drown In You') 64bit 2017-08-27 22:05:34 / mkvmerge v10.0.0 ('To Drown In You') 64bit 2017-08-27 22:05:34 / UTC 2017-08-27T18:12:55Z
    FromStats_BitRate           : 29599
    FromStats_Duration          : 01:39:40.808000000
    FromStats_FrameCount        : 3420
    FromStats_StreamSize        : 22128853

    Text #2
    ID                          : 5
    Format                      : PGS
    Muxing mode                 : zlib
    Codec ID                    : S_HDMV/PGS
    Codec ID/Info               : Picture based subtitle format used on BDs/HD-DVDs
    Language                    : English
    Default                     : No
    Forced                      : No
    Statistics Tags Issue       : mkvmerge v10.0.0 ('To Drown In You') 64bit 2017-08-27 22:05:34 / mkvmerge v10.0.0 ('To Drown In You') 64bit 2017-08-27 22:05:34 / UTC 2017-08-27T18:12:55Z
    FromStats_BitRate           : 42284
    FromStats_Duration          : 01:39:47.690000000
    FromStats_FrameCount        : 4791
    FromStats_StreamSize        : 31648074

    Menu
    00:00:00.000                : :Chapter 1
    00:04:44.326                : :Chapter 2
    00:08:05.276                : :Chapter 3
    00:15:19.210                : :Chapter 4
    00:25:46.295                : :Chapter 5
    00:34:27.023                : :Chapter 6
    00:39:51.097                : :Chapter 7
    00:43:11.089                : :Chapter 8
    00:46:26.617                : :Chapter 9
    00:49:09.530                : :Chapter 10
    00:53:43.637                : :Chapter 11
    00:59:37.657                : :Chapter 12
    01:02:53.895                : :Chapter 13
    01:11:56.646                : :Chapter 14
    01:22:55.679                : :Chapter 15
    01:30:58.328                : :Chapter 16

  • Peso: 2.83 GB

Sinopsis

Rough Night (Hasta que el cuerpo aguante) es una comedia dirigida por Lucia Aniello, con un guión co-escrito por Aniello junto con Paul W. Downs. Es protagonizada por Scarlett Johansson, Kate McKinnon, Jillian Bell, Ilana Glazer, Zoë Kravitz y Paul W. Downs. Cinco amigas se reúnen para un fin de semana en una casa de playa en Miami para celebrar la despedida de una de ellas. Pero las cosas se salen de control cuando accidentalmente matan a un stripper.

SOLO AUDIO INGLES DTS 5.1

 

Ficha técnica

  • Titulo original: Rough Night
  • Fecha de lanzamiento: 16-06-2017 (United States of America)
  • Director: Lucia Aniello
  • Género: Comedia, Drama
  • Puntuación: 4.0 2 votos
  • Duración:
    1h 40m

Video trailer de la película

Enlaces de descarga

Descargar Una noche fuera de control (2017) Full 1080p Latino
Descargar

dpeliculas

Aportes de DPeliculasHDmega la pass es:dpeliculashdmega.org Aportes de CinemaniaHD la pass es:cinemaniahdd.com
Guardado en : Comedia , Drama

Películas relacionadas

  • Arrow (2017) Temporada 6 WEBDL 1080p Latino

    2012
    Arrow (2017) Temporada 6 WEBDL 1080p Latino

    2.3 0h 42m 2012

    Con el futuro del equipo pendiendo de un hilo, Arrow le dio una nueva definición a la frase “explotar...

    Director: Marc Guggenheim

    Género: Acción

    Actores: Willa Holland

  • The Flash (2017) Temporada 4 WEBDL 1080p Latino

    2014
    The Flash (2017) Temporada 4 WEBDL 1080p Latino

    2.8 0h 44m 2014

    Enfrentarse a una versión remanente de uno mismo es algo que nadie debería tener que hacer, pero eso...

    Director: Geoff Johns

    Género: Drama

    Actores: Tom Cavanagh

  • Línea mortal: Al límite (2017) 1080p Latino

    2017
    Línea mortal: Al límite (2017) 1080p Latino

    3.0 1 h 49 min 2017

    Un grupo de jóvenes estudiantes de medicina llevan a cabo un experimento que implica una muerte provocada...

    Director: Niels Arden Oplev

    Género: Ciencia ficción

    Actores: Wendy Raquel Robinson

  • La hora del cambio (2017) 1080p Latino

    2017
    La hora del cambio (2017) 1080p Latino

    0.0 1 h 32 min 2017

    Los vecinos del pequeño pueblo siciliano de Pietrammare viven acostumbrados al caos que conlleva “saltarse...

    Director: Valentino Picone

    Género: Comedia

    Actores: Vincenzo Ferrera

  • Un reino unido (2016) 1080p Latino

    2016
    Un reino unido (2016) 1080p Latino

    0.0 1 h 50 min 2016

    Biopic sobre el Príncipe Seretse Khama, el rey de Botsuana, que al contraer matrimonio en 1948 con Ruth...

    Director: Amma Asante

    Género: Drama

    Actores: Zackary Momoh

Comentarios 12
  • Brian - 02 septiembre, 2017

    Hola, pero le hubieses puesto el audio dts 5.1, en otra pagina vi que se lo pusieron , pero bueno yo soy vip aca

    • dpelis

      Administrador
      - 03 septiembre, 2017

      audio agregado abajo de la sinopsis. solo audio ingles dts

      • Brian - 03 septiembre, 2017

        Y como se lo agregas al audio? ya que yo miro a traves de un pendrive en el usb de la tv

      • Brian - 03 septiembre, 2017

        jajaj hubieses puesto directamente el dts 5.1 mas facil, le doy clic al audi pero me manda una pagina que me dice que tengo que esperar pero no puedo hacer nada, ya cinemania me explico como agregar el audi , medio embole ja

        • dpelis

          Administrador
          - 03 septiembre, 2017

          ya le deje el video tutorial

  • Jhefferson - 29 agosto, 2017

    Gracias A Descargar se a dicho…

  • Jonna - 29 agosto, 2017

    Gracias, Bajando 🙂

  • Brian - 29 agosto, 2017

    Hola una consulta, por que esta pelicula no trae audi dts, siendo que en esta vercion ustedes no tocan nada, el bluray trae audio dts de esta pelicula no?

    • dpelis

      Administrador
      - 29 agosto, 2017

      le puse inglres ac3. el otro creo q era dts 7.1 y no me gusta agrega ese por compatibilidad

      • slash - 29 agosto, 2017

        Deberías dejárselo Cine, cuando era Cinemania si el audio era Dts 7.1 se lo dejaban, y pues si no hay compatibilidad para eso esta la caratula negra.

      • brian guillen - 02 septiembre, 2017

        Hola, gracias, no sabia que me habias repondido por aca, asi que solo traia dts 7,1 , no el 5.1? saludos

        • dpelis

          Administrador
          - 03 septiembre, 2017

          correcto