Advertise here

Unforgettable (2017) 1080p Latino

2.423 vistas
1 estrella2 estrellas3 estrellas4 estrellas5 estrellas (Ninguna valoración todavía)
Cargando…

Información de Unforgettable (2017) 1080p Latino

Datos de la película

  • Calidad: 1080p
  • Audio: Español Latino AC3 5.1 DVD - Ingles AC3 5.1 BLURAY
  • Subtitulos: Español Latino SRT - Ingles SRT
  • Resolución: 1920x1080p
  • Formato: MKV
  • Codec: H.264
  • Encoder: Dpelis
  • Mediainfo: Clic para Mostrar Datos Ver
  • Unforgettable (2017)  Latino.mkv
    Format                      : Matroska
    Format version              : Version 4 / Version 2
    File size                   : 2.95 GiB
    Duration                    : 1 h 40 min
    Overall bit rate            : 4 215 kb/s
    Movie name                  : DPeliculasHDMega.ORG
    Encoded date                : UTC 2017-07-11 21:43:38 / UTC 2017-07-11T18:06:52Z
    Writing application         : mkvmerge v10.0.0 ('To Drown In You') 64bit
    Writing library             : libebml v1.3.4 + libmatroska v1.4.5 / Lavf57.7.2

    Video
    ID                          : 1
    Format                      : AVC
    Format/Info                 : Advanced Video Codec
    Format profile              : High@L4.1
    Format settings, CABAC      : Yes
    Format settings, ReFrames   : 4 frames
    Codec ID                    : V_MPEG4/ISO/AVC
    Duration                    : 1 h 40 min
    Bit rate                    : 3 500 kb/s
    Width                       : 1 920 pixels
    Height                      : 1 080 pixels
    Display aspect ratio        : 16:9
    Frame rate mode             : Constant
    Frame rate                  : 23.976 (24000/1001) FPS
    Color space                 : YUV
    Chroma subsampling          : 4:2:0
    Bit depth                   : 8 bits
    Scan type                   : Progressive
    Bits/(Pixel*Frame)          : 0.070
    Stream size                 : 2.35 GiB (80%)
    Writing library             : x264 core 148 r2708 86b7198
    Encoding settings           : cabac=1 / ref=3 / deblock=1:0:0 / analyse=0x3:0x113 / me=hex / subme=7 / psy=1 / psy_rd=1.00:0.00 / mixed_ref=1 / me_range=16 / chroma_me=1 / trellis=1 / 8x8dct=1 / cqm=0 / deadzone=21,11 / fast_pskip=1 / chroma_qp_offset=-2 / threads=12 / lookahead_threads=2 / sliced_threads=0 / nr=0 / decimate=1 / interlaced=0 / bluray_compat=0 / constrained_intra=0 / bframes=3 / b_pyramid=2 / b_adapt=1 / b_bias=0 / direct=1 / weightb=1 / open_gop=0 / weightp=2 / keyint=240 / keyint_min=24 / scenecut=40 / intra_refresh=0 / rc_lookahead=40 / rc=abr / mbtree=1 / bitrate=3500 / ratetol=1.0 / qcomp=0.60 / qpmin=0 / qpmax=69 / qpstep=4 / vbv_maxrate=62500 / vbv_bufsize=78125 / nal_hrd=none / filler=0 / ip_ratio=1.40 / aq=1:1.00
    Default                     : Yes
    Forced                      : No
    Color range                 : Limited
    Color primaries             : BT.709
    Transfer characteristics    : BT.709
    Matrix coefficients         : BT.709
    Statistics Tags Issue       : mkvmerge v10.0.0 ('To Drown In You') 64bit 2017-07-11 21:43:38 / mkvmerge v10.0.0 ('To Drown In You') 64bit 2017-07-11 21:43:38 / UTC 2017-07-11T18:06:52Z
    FromStats_BitRate           : 3445016
    FromStats_Duration          : 01:40:08.002000000
    FromStats_FrameCount        : 144048
    FromStats_StreamSize        : 2587208412

    Audio #1
    ID                          : 2
    Format                      : AC-3
    Format/Info                 : Audio Coding 3
    Format settings, Endianness : Big
    Codec ID                    : A_AC3
    Duration                    : 1 h 40 min
    Bit rate mode               : Constant
    Bit rate                    : 384 kb/s
    Channel(s)                  : 6 channels
    Channel positions           : Front: L C R, Side: L R, LFE
    Sampling rate               : 48.0 kHz
    Frame rate                  : 31.250 FPS (1536 spf)
    Bit depth                   : 16 bits
    Compression mode            : Lossy
    Stream size                 : 275 MiB (9%)
    Language                    : Spanish
    Service kind                : Complete Main
    Default                     : Yes
    Forced                      : No
    Statistics Tags Issue       : mkvmerge v10.0.0 ('To Drown In You') 64bit 2017-07-11 21:43:38 / mkvmerge v10.0.0 ('To Drown In You') 64bit 2017-07-11 21:43:38 / UTC 2017-07-11T18:06:52Z
    FromStats_BitRate           : 384000
    FromStats_Duration          : 01:40:06.976000000
    FromStats_FrameCount        : 187718
    FromStats_StreamSize        : 288334848

    Audio #2
    ID                          : 3
    Format                      : AC-3
    Format/Info                 : Audio Coding 3
    Format settings, Endianness : Big
    Codec ID                    : A_AC3
    Duration                    : 1 h 40 min
    Bit rate mode               : Constant
    Bit rate                    : 384 kb/s
    Channel(s)                  : 6 channels
    Channel positions           : Front: L C R, Side: L R, LFE
    Sampling rate               : 48.0 kHz
    Frame rate                  : 31.250 FPS (1536 spf)
    Bit depth                   : 16 bits
    Compression mode            : Lossy
    Stream size                 : 275 MiB (9%)
    Language                    : English
    Service kind                : Complete Main
    Default                     : No
    Forced                      : No
    Statistics Tags Issue       : mkvmerge v10.0.0 ('To Drown In You') 64bit 2017-07-11 21:43:38 / mkvmerge v10.0.0 ('To Drown In You') 64bit 2017-07-11 21:43:38 / UTC 2017-07-11T18:06:52Z
    FromStats_BitRate           : 384000
    FromStats_Duration          : 01:40:08.064000000
    FromStats_FrameCount        : 187752
    FromStats_StreamSize        : 288387072

    Text #1
    ID                          : 4
    Format                      : UTF-8
    Codec ID                    : S_TEXT/UTF8
    Codec ID/Info               : UTF-8 Plain Text
    Language                    : Spanish
    Default                     : Yes
    Forced                      : No
    Statistics Tags Issue       : mkvmerge v10.0.0 ('To Drown In You') 64bit 2017-07-11 21:43:38 / mkvmerge v10.0.0 ('To Drown In You') 64bit 2017-07-11 21:43:38 / UTC 2017-07-11T18:06:52Z
    FromStats_BitRate           : 45
    FromStats_Duration          : 01:39:11.479000000
    FromStats_FrameCount        : 1188
    FromStats_StreamSize        : 33603

    Text #2
    ID                          : 5
    Format                      : UTF-8
    Codec ID                    : S_TEXT/UTF8
    Codec ID/Info               : UTF-8 Plain Text
    Language                    : English
    Default                     : No
    Forced                      : No
    Statistics Tags Issue       : mkvmerge v10.0.0 ('To Drown In You') 64bit 2017-07-11 21:43:38 / mkvmerge v10.0.0 ('To Drown In You') 64bit 2017-07-11 21:43:38 / UTC 2017-07-11T18:06:52Z
    FromStats_BitRate           : 51
    FromStats_Duration          : 01:36:09.202000000
    FromStats_FrameCount        : 1296
    FromStats_StreamSize        : 36823

    Menu
    00:00:00.000                : :00:00:00.000
    00:09:57.055                : :00:09:57.055
    00:18:48.044                : :00:18:48.044
    00:28:13.984                : :00:28:13.984
    00:36:48.832                : :00:36:48.832
    00:47:02.320                : :00:47:02.319
    00:56:55.370                : :00:56:55.370
    01:08:42.160                : :01:08:42.160
    01:17:40.322                : :01:17:40.322
    01:26:15.629                : :01:26:15.629
    01:37:16.205                : :01:37:16.164

  • Peso: 2.95 GB

Sinopsis

Descargar Unforgettable hd latino, tambien conocida como Mio de Nadie 1080p latino Heigl interpreta a Tessa Connover, quien se enfrenta a duras penas al final de su matrimonio cuando su ex marido, David (Stults), se compromete con Julia Banks (Dawson) – y no solo lleva a Julia a la casa que habían compartido, sino también junto a su hija, Lilly (Isabella Rice). Intentando consolidar su nueva función como esposa y madrastra, Julia cree que ha encontrado finalmente al hombre de sus sueños, el hombre que puede ayudarla a superar su turbulento pasado. Pero los celos de Tessa pronto adquieren tintes patológicos, y no se detiene ante nada para convertir los sueños de Julia en una terrible pesadilla.

Ficha técnica

Video trailer de la película

Enlaces de descarga

Descargar Unforgettable (2017) 1080p Latino
Descargar

dpeliculas

Aportes de DPeliculasHDmega la pass es:dpeliculashdmega.org Aportes de CinemaniaHD la pass es:cinemaniahdd.com
Guardado en : Drama , Suspense

Películas relacionadas

  • Línea mortal: al límite (2017) Full 1080p Latino

    2017
    Línea mortal: al límite (2017) Full 1080p Latino

    0.0 1 h 49 min 2017

    Remake del clasico de los 90 Línea mortal (Flatliners). Un grupo de jóvenes estudiantes de medicina...

    Director: Niels Arden Oplev

    Género: Ciencia ficción

    Actores: Wendy Raquel Robinson

  • La montaña entre nosotros (2017) Full 1080p Latino

    2017
    La montaña entre nosotros (2017) Full 1080p Latino

    5.0 1 h 51 min 2017

    Abandonados a su suerte después de un trágico accidente aéreo, Ben Bass (Idris Elba) y Alex Martin...

    Director: Tim Macarthur

    Género: Aventura

    Actores: Waleed Zuaiter

  • La montaña entre nosotros (2017) 1080p Latino

    2017
    La montaña entre nosotros (2017) 1080p Latino

    4.0 1h 43m 2017

    Adaptación de la novela de Charles Martin. La historia sigue a dos personas distintas, Ashley es una...

    Director: Tim Macarthur

    Género: Aventura

    Actores: Waleed Zuaiter

Comentarios 0