Advertise here

Vikingos Temporada 5 (2017) WEB-DL Amazon 1080p Latino

1.318 vistas
1 estrella2 estrellas3 estrellas4 estrellas5 estrellas (Ninguna valoración todavía)
Cargando…

Información de Vikingos Temporada 5 (2017) WEB-DL Amazon 1080p Latino

Datos de la película

  • Calidad: WEBDL
  • Audio: Se especifica abajo de la Sinopsis
  • Subtitulos: Español Latino SRT- FORZADOS SRT
  • Resolución: 1920X1080
  • Formato: MKV
  • Codec: H.264
  • Encoder: CinemaniaHD
  • Mediainfo: Clic para Mostrar Datos Ver
  • Format                                   : Matroska
    Format version                           : Version 4 / Version 2
    File size                                : 1.38 GiB
    Duration                                 : 45 min 50 s
    Overall bit rate                         : 4 325 kb/s
    Movie name                               : CinemaniaHDD.com
    Encoded date                             : UTC 2017-12-07 03:14:56 / UTC 2017-12-06T22:38:15Z
    Writing application                      : mkvmerge v15.0.0 ('Duel with the Devil') 64-bit
    Writing library                          : libebml v1.3.5 + libmatroska v1.4.5 / Lavf57.7.2

    Video
    ID                                       : 1
    Format                                   : AVC
    Format/Info                              : Advanced Video Codec
    Format profile                           : High@L4.1
    Format settings                          : CABAC / 4 Ref Frames
    Format settings, CABAC                   : Yes
    Format settings, RefFrames               : 4 frames
    Codec ID                                 : V_MPEG4/ISO/AVC
    Duration                                 : 45 min 50 s
    Bit rate                                 : 3 500 kb/s
    Width                                    : 1 920 pixels
    Height                                   : 1 080 pixels
    Display aspect ratio                     : 16:9
    Frame rate mode                          : Constant
    Frame rate                               : 23.976 (24000/1001) FPS
    Color space                              : YUV
    Chroma subsampling                       : 4:2:0
    Bit depth                                : 8 bits
    Scan type                                : Progressive
    Bits/(Pixel*Frame)                       : 0.070
    Stream size                              : 1.07 GiB (77%)
    Title                                    : Vikingos Temporada 5 (2017) Cap-1 WEB-DL 1080p Latino
    Writing library                          : x264 core 148 r2708 86b7198
    Encoding settings                        : cabac=1 / ref=4 / deblock=1:0:0 / analyse=0x3:0x113 / me=umh / subme=8 / psy=1 / psy_rd=1.00:0.00 / mixed_ref=1 / me_range=16 / chroma_me=1 / trellis=1 / 8x8dct=1 / cqm=0 / deadzone=21,11 / fast_pskip=1 / chroma_qp_offset=-2 / threads=34 / lookahead_threads=5 / sliced_threads=0 / nr=0 / decimate=1 / interlaced=0 / bluray_compat=0 / constrained_intra=0 / bframes=3 / b_pyramid=2 / b_adapt=2 / b_bias=0 / direct=3 / weightb=1 / open_gop=0 / weightp=2 / keyint=240 / keyint_min=24 / scenecut=40 / intra_refresh=0 / rc_lookahead=50 / rc=abr / mbtree=1 / bitrate=3500 / ratetol=1.0 / qcomp=0.60 / qpmin=0 / qpmax=69 / qpstep=4 / vbv_maxrate=62500 / vbv_bufsize=78125 / nal_hrd=none / filler=0 / ip_ratio=1.40 / aq=1:1.00
    Language                                 : English
    Default                                  : Yes
    Forced                                   : No
    Color range                              : Limited
    Color primaries                          : BT.709
    Transfer characteristics                 : BT.709
    Matrix coefficients                      : BT.709
    Statistics Tags Issue                    : mkvmerge v15.0.0 ('Duel with the Devil') 64-bit 2017-12-07 03:14:56 / mkvmerge v15.0.0 ('Duel with the Devil') 64-bit 2017-12-07 03:14:56 / UTC 2017-12-06T22:38:15Z
    FromStats_BitRate                        : 3427122
    FromStats_Duration                       : 00:45:50.123000000
    FromStats_FrameCount                     : 65937
    FromStats_StreamSize                     : 1178125914

    Audio #1
    ID                                       : 2
    Format                                   : AC-3
    Format/Info                              : Audio Coding 3
    Format settings, Endianness              : Big
    Codec ID                                 : A_AC3
    Duration                                 : 45 min 50 s
    Bit rate mode                            : Constant
    Bit rate                                 : 256 kb/s
    Channel(s)                               : 2 channels
    Channel positions                        : Front: L R
    Sampling rate                            : 32.0 kHz
    Frame rate                               : 20.833 FPS (1536 SPF)
    Bit depth                                : 16 bits
    Compression mode                         : Lossy
    Stream size                              : 83.9 MiB (6%)
    Title                                    : AC3-Fox Play
    Language                                 : Spanish
    Service kind                             : Complete Main
    Default                                  : Yes
    Forced                                   : No
    Statistics Tags Issue                    : mkvmerge v15.0.0 ('Duel with the Devil') 64-bit 2017-12-07 03:14:56 / mkvmerge v15.0.0 ('Duel with the Devil') 64-bit 2017-12-07 03:14:56 / UTC 2017-12-06T22:38:15Z
    FromStats_BitRate                        : 256000
    FromStats_Duration                       : 00:45:50.160000000
    FromStats_FrameCount                     : 57295
    FromStats_StreamSize                     : 88005120

    Audio #2
    ID                                       : 3
    Format                                   : E-AC-3
    Format/Info                              : Enhanced Audio Coding 3
    Format settings, Endianness              : Big
    Codec ID                                 : A_EAC3
    Duration                                 : 45 min 50 s
    Bit rate mode                            : Constant
    Bit rate                                 : 640 kb/s
    Channel(s)                               : 6 channels
    Channel positions                        : Front: L C R, Side: L R, LFE
    Sampling rate                            : 48.0 kHz
    Frame rate                               : 187.500 FPS (256 SPF)
    Compression mode                         : Lossy
    Stream size                              : 210 MiB (15%)
    Title                                    : AC3-WEBDL
    Language                                 : English
    Service kind                             : Complete Main
    Default                                  : No
    Forced                                   : No
    Statistics Tags Issue                    : mkvmerge v15.0.0 ('Duel with the Devil') 64-bit 2017-12-07 03:14:56 / mkvmerge v15.0.0 ('Duel with the Devil') 64-bit 2017-12-07 03:14:56 / UTC 2017-12-06T22:38:15Z
    FromStats_BitRate                        : 640000
    FromStats_Duration                       : 00:45:50.080000000
    FromStats_FrameCount                     : 85940
    FromStats_StreamSize                     : 220006400

    Text #1
    ID                                       : 4
    Format                                   : UTF-8
    Codec ID                                 : S_TEXT/UTF8
    Codec ID/Info                            : UTF-8 Plain Text
    Title                                    : Completos
    Language                                 : Spanish
    Default                                  : No
    Forced                                   : No
    Statistics Tags Issue                    : mkvmerge v15.0.0 ('Duel with the Devil') 64-bit 2017-12-07 03:14:56 / mkvmerge v15.0.0 ('Duel with the Devil') 64-bit 2017-12-07 03:14:56 / UTC 2017-12-06T22:38:15Z
    FromStats_BitRate                        : 34
    FromStats_Duration                       : 00:42:36.870000000
    FromStats_FrameCount                     : 371
    FromStats_StreamSize                     : 11135

    Text #2
    ID                                       : 5
    Format                                   : UTF-8
    Codec ID                                 : S_TEXT/UTF8
    Codec ID/Info                            : UTF-8 Plain Text
    Title                                    : Forzados
    Language                                 : Spanish
    Default                                  : Yes
    Forced                                   : Yes
    Statistics Tags Issue                    : mkvmerge v15.0.0 ('Duel with the Devil') 64-bit 2017-12-07 03:14:56 / mkvmerge v15.0.0 ('Duel with the Devil') 64-bit 2017-12-07 03:14:56 / UTC 2017-12-06T22:38:15Z
    FromStats_BitRate                        : 2
    FromStats_Duration                       : 00:27:19.912000000
    FromStats_FrameCount                     : 22
    FromStats_StreamSize                     : 542

    Menu
    00:00:00.000                             : :Opening Credits
    00:00:51.009                             : :Not meant to be
    00:04:49.122                             : :A place full of ghostly memories
    00:05:38.004                             : :From brother to brother
    00:07:38.166                             : :Searching for King Ecbert
    00:08:53.116                             : :The request from a broken heart
    00:12:10.146                             : :After the death of King Ecbert
    00:14:57.105                             : :There is a meaning for all the pain
    00:18:23.102                             : :Floki's farewell
    00:21:17.193                             : :Prayer for the King
    00:22:49.159                             : :The idea of an impregnable fortress
    00:25:56.138                             : :Prayer of forgiveness
    00:28:15.027                             : :Planning the best time to attack York
    00:31:13.038                             : :It's time
    00:38:05.116                             : :A toast to all brothers
    00:39:12.100                             : :The truth can be a bad choice for a wise man
    00:44:49.020                             : :End Credits

  • Peso: Aproximadamente 1.4 GiB X capitulo (3 Capitulos Disponible, Cada Domingo Nuevo Capitulo Latino)

Sinopsis

Sigue las aventuras de Ragnar Lothbrok, el héroe más grande de su época. La serie narra las sagas de la banda de hermanos vikingos de Ragnar y su familia, cuando él se levanta para convertirse en el rey de las tribus vikingas. Además de ser un guerrero valiente, Ragnar encarna las tradiciones nórdicas de la devoción a los dioses, la leyenda dice que él era un descendiente directo de Odín, el dios de la guerra y los guerreros.

 

Audios: Latino AC3 2.0 Fox Play – Ingles AC3 5.1 WEBDL

Creditos Audio latino: BryanTV

 

Audios Latinos Editados para Version Amazon Incluye subtitulos Forzados

Ficha técnica

Video trailer de la película

Enlaces de descarga

Descargar Vikingos Temporada 5 (2017) WEB-DL Amazon 1080p Latino
Descargar

dpeliculas

Aportes de DPeliculasHDmega la pass es:dpeliculashdmega.org Aportes de CinemaniaHD la pass es:cinemaniahdd.com

Películas relacionadas

  • Línea mortal: Al límite (2017) 1080p Latino

    2017
    Línea mortal: Al límite (2017) 1080p Latino

    0.0 1 h 49 min 2017

    Un grupo de jóvenes estudiantes de medicina llevan a cabo un experimento que implica una muerte provocada...

    Director: Niels Arden Oplev

    Género: Ciencia ficción

    Actores: Wendy Raquel Robinson

  • Un reino unido (2016) 1080p Latino

    2016
    Un reino unido (2016) 1080p Latino

    0.0 1 h 50 min 2016

    Biopic sobre el Príncipe Seretse Khama, el rey de Botsuana, que al contraer matrimonio en 1948 con Ruth...

    Director: Amma Asante

    Género: Drama

    Actores: Zackary Momoh

  • The Walking Dead (2017) Temporada 8 WEB-DL 1080p Latino

    2017
    The Walking Dead (2017) Temporada 8 WEB-DL 1080p Latino

    5.0 0h 42m 2017

    Rick, Maggie y Ezekiel reúnen a sus comunidades para derrotar a Negan y los salvadores. Gregory intenta...

    Director: Frank Darabont

    Género: Action & Adventure

    Actores: Norman Reedus

  • La LEGO Ninjago pelicula (2017) Full 1080p Latino

    2017
    La LEGO Ninjago pelicula (2017) Full 1080p Latino

    4.0 1h 40m 2017

    Una tierra lejana amenazada por la oscuridad. En este lugar llamado Ninjago, las fuerzas del bien y del...

    Director: Paul Fisher

    Género: Acción

    Actores: Zach Woods

Comentarios 17
  • k4roso - 11 diciembre, 2017

    pueden subir las temporadas anteriores?

    • Dpelis2

      Autor
      - 11 diciembre, 2017

      mas adelante

  • Cristo - 11 diciembre, 2017

    Una pregunta cuando suben it(eso) en latino?

    • Dpelis2

      Autor
      - 11 diciembre, 2017

      Cuando salga en latino. claro que si

  • cesar - 09 diciembre, 2017

    suban toda la serie porfabor

    • Dpelis2

      Autor
      - 09 diciembre, 2017

      esa es la idea

  • Alfredo - 07 diciembre, 2017

    hola, saben si esta es la version con escenas adicionales? creo que los webdl de amazon son extendidos

    • Dpelis2

      Autor
      - 07 diciembre, 2017

      Son los De amazon.

    • Alfredo - 07 diciembre, 2017

      creo que ya me respondi solo si los audios latinos son de fox es la version normal 🙂

      • Dpelis2

        Autor
        - 07 diciembre, 2017

        Los audios de fox fueron editados para la version de Amazon.

        • Alfredo - 07 diciembre, 2017

          gracias si ahi baje por eso los subtitulos forzados 🙂

  • ale27 - 07 diciembre, 2017

    los archivos estan dañados sale un error no se pude descomprimir

    • dpelis

      Administrador
      - 07 diciembre, 2017

      la contrasena es cinemaniahdd.com sin espacios y todo minuscula ademas usar winrar 5.40 version full

      • ale27 - 07 diciembre, 2017

        gracias solucionado

        • dpelis

          Administrador
          - 07 diciembre, 2017

          nos alegra,

  • Altair - 07 diciembre, 2017

    nunca he visto esta serie y me la han recomendado mucho ¿no tendran pensado en poner las temporadas pasadas? solo pregunto. muchas gracias por su esfuerzo.

    • Dpelis2

      Autor
      - 07 diciembre, 2017

      claro que se subirán las temporadas pasadas.