Advertise here

Voltron El defensor legendario (2017) Temporada 2 WEBDL 1080p Latino

914 vistas
1 estrella2 estrellas3 estrellas4 estrellas5 estrellas (Ninguna valoración todavía)
Cargando…

Información de Voltron El defensor legendario (2017) Temporada 2 WEBDL 1080p Latino

Datos de la película

  • Calidad: WEBDL
  • Audio: Español Latino AC3 5.1 Netflix - Ingles AC3 5.1 Netflix
  • Subtitulos: Español Latino SRT - Ingles SRT
  • Resolución: 1920x1080p
  • Formato: MKV
  • Codec: H.264
  • Encoder: Dpelis
  • Mediainfo: Clic para Mostrar Datos Ver
  • Voltron Legendary Defender S02E01 WEBDL 1080p Latino.mkv
    Format                      : Matroska
    Format version              : Version 4 / Version 2
    File size                   : 662 MiB
    Duration                    : 23 min 40 s
    Overall bit rate            : 3 908 kb/s
    Movie name                  : DPeliculasHDMega.ORG
    Encoded date                : UTC 2017-09-04 01:15:02 / UTC 2017-09-03T06:50:55Z
    Writing application         : mkvmerge v10.0.0 ('To Drown In You') 64bit
    Writing library             : libebml v1.3.4 + libmatroska v1.4.5 / Lavf57.7.2

    Video
    ID                          : 1
    Format                      : AVC
    Format/Info                 : Advanced Video Codec
    Format profile              : High@L4.1
    Format settings, CABAC      : Yes
    Format settings, ReFrames   : 4 frames
    Codec ID                    : V_MPEG4/ISO/AVC
    Duration                    : 23 min 40 s
    Bit rate                    : 3 254 kb/s
    Nominal bit rate            : 3 500 kb/s
    Width                       : 1 920 pixels
    Height                      : 1 080 pixels
    Display aspect ratio        : 16:9
    Frame rate mode             : Constant
    Frame rate                  : 23.976 (24000/1001) FPS
    Color space                 : YUV
    Chroma subsampling          : 4:2:0
    Bit depth                   : 8 bits
    Scan type                   : Progressive
    Bits/(Pixel*Frame)          : 0.065
    Stream size                 : 551 MiB (83%)
    Writing library             : x264 core 148 r2708 86b7198
    Encoding settings           : cabac=1 / ref=3 / deblock=1:0:0 / analyse=0x3:0x113 / me=hex / subme=7 / psy=1 / psy_rd=1.00:0.00 / mixed_ref=1 / me_range=16 / chroma_me=1 / trellis=1 / 8x8dct=1 / cqm=0 / deadzone=21,11 / fast_pskip=1 / chroma_qp_offset=-2 / threads=34 / lookahead_threads=5 / sliced_threads=0 / nr=0 / decimate=1 / interlaced=0 / bluray_compat=0 / constrained_intra=0 / bframes=3 / b_pyramid=2 / b_adapt=1 / b_bias=0 / direct=1 / weightb=1 / open_gop=0 / weightp=2 / keyint=240 / keyint_min=24 / scenecut=40 / intra_refresh=0 / rc_lookahead=40 / rc=abr / mbtree=1 / bitrate=3500 / ratetol=1.0 / qcomp=0.60 / qpmin=0 / qpmax=69 / qpstep=4 / vbv_maxrate=62500 / vbv_bufsize=78125 / nal_hrd=none / filler=0 / ip_ratio=1.40 / aq=1:1.00
    Default                     : Yes
    Forced                      : No
    Color range                 : Limited
    Color primaries             : BT.709
    Transfer characteristics    : BT.709
    Matrix coefficients         : BT.709
    Statistics Tags Issue       : mkvmerge v10.0.0 ('To Drown In You') 64bit 2017-09-04 01:15:02 / mkvmerge v10.0.0 ('To Drown In You') 64bit 2017-09-04 01:15:02 / UTC 2017-09-03T06:50:55Z
    FromStats_BitRate           : 3330415
    FromStats_Duration          : 00:23:39.835000000
    FromStats_FrameCount        : 34042
    FromStats_StreamSize        : 591080112

    Audio #1
    ID                          : 2
    Format                      : E-AC-3
    Format/Info                 : Enhanced Audio Coding 3
    Format settings, Endianness : Big
    Codec ID                    : A_EAC3
    Duration                    : 23 min 40 s
    Bit rate mode               : Constant
    Bit rate                    : 192 kb/s
    Channel(s)                  : 6 channels
    Channel positions           : Front: L C R, Side: L R, LFE
    Sampling rate               : 48.0 kHz
    Frame rate                  : 187.500 FPS (256 spf)
    Compression mode            : Lossy
    Stream size                 : 32.5 MiB (5%)
    Language                    : Spanish
    Service kind                : Complete Main
    Default                     : Yes
    Forced                      : No
    Statistics Tags Issue       : mkvmerge v10.0.0 ('To Drown In You') 64bit 2017-09-04 01:15:02 / mkvmerge v10.0.0 ('To Drown In You') 64bit 2017-09-04 01:15:02 / UTC 2017-09-03T06:50:55Z
    FromStats_BitRate           : 192000
    FromStats_Duration          : 00:23:40.064000000
    FromStats_FrameCount        : 44377
    FromStats_StreamSize        : 34081536

    Audio #2
    ID                          : 3
    Format                      : AC-3
    Format/Info                 : Audio Coding 3
    Format settings, Endianness : Big
    Codec ID                    : A_AC3
    Duration                    : 23 min 40 s
    Bit rate mode               : Constant
    Bit rate                    : 384 kb/s
    Channel(s)                  : 6 channels
    Channel positions           : Front: L C R, Side: L R, LFE
    Sampling rate               : 48.0 kHz
    Frame rate                  : 31.250 FPS (1536 spf)
    Bit depth                   : 16 bits
    Compression mode            : Lossy
    Stream size                 : 65.0 MiB (10%)
    Title                       : Surround
    Language                    : English
    Service kind                : Complete Main
    Default                     : No
    Forced                      : No
    Statistics Tags Issue       : mkvmerge v10.0.0 ('To Drown In You') 64bit 2017-09-04 01:15:02 / mkvmerge v10.0.0 ('To Drown In You') 64bit 2017-09-04 01:15:02 / UTC 2017-09-03T06:50:55Z
    FromStats_BitRate           : 384000
    FromStats_Duration          : 00:23:40.064000000
    FromStats_FrameCount        : 44377
    FromStats_StreamSize        : 68163072

    Text #1
    ID                          : 4
    Format                      : ASS
    Codec ID                    : S_TEXT/ASS
    Codec ID/Info               : Advanced Sub Station Alpha
    Compression mode            : Lossless
    Language                    : Spanish
    Default                     : No
    Forced                      : No
    Statistics Tags Issue       : mkvmerge v10.0.0 ('To Drown In You') 64bit 2017-09-04 01:15:02 / mkvmerge v10.0.0 ('To Drown In You') 64bit 2017-09-04 01:15:02 / UTC 2017-09-03T06:50:55Z
    FromStats_BitRate           : 65
    FromStats_Duration          : 00:22:40.776000000
    FromStats_FrameCount        : 189
    FromStats_StreamSize        : 11118

    Text #2
    ID                          : 5
    Format                      : ASS
    Codec ID                    : S_TEXT/ASS
    Codec ID/Info               : Advanced Sub Station Alpha
    Compression mode            : Lossless
    Language                    : English
    Default                     : No
    Forced                      : No
    Statistics Tags Issue       : mkvmerge v10.0.0 ('To Drown In You') 64bit 2017-09-04 01:15:02 / mkvmerge v10.0.0 ('To Drown In You') 64bit 2017-09-04 01:15:02 / UTC 2017-09-03T06:50:55Z
    FromStats_BitRate           : 98
    FromStats_Duration          : 00:21:45.512000000
    FromStats_FrameCount        : 282
    FromStats_StreamSize        : 16066

  • Peso: 650 MB C/U

Sinopsis

Hunk y Lance aterrizan bajo el agua y seguir una sirena a una civilización cuya reina se compromete a mantenerlos seguros y ayudar a encontrar a los otros. Mientras descansa, Lance es secuestrado por un trío de mer-gente que cree la reina a ser el control de la mente poblada. Después de la liberación del trozo del control y la captura de la reina se dan cuenta de que el Bakú, que era una fuente de alimento para el pueblo, era realmente una bestia depredador extranjero. Lanza canales de una nueva arma de su Blue Lion y mata el Bakú, y como agradecimiento a la reina utiliza el antiguo faro de la energía que trae Pidge a su rescate.

Ficha técnica

  • Titulo original: Voltron: Legendary Defender
  • Fecha de lanzamiento: 19-01-2017 (United States of America)
  • Género: Acción, Animación, Series
  • Puntuación: 0.0 0 votos
  • Duración:
    0h 23m

Video trailer de la película

Enlaces de descarga

Descargar Voltron El defensor legendario (2017) Temporada 2 WEBDL 1080p Latino
Descargar

dpeliculas

Aportes de DPeliculasHDmega la pass es:dpeliculashdmega.org Aportes de CinemaniaHD la pass es:cinemaniahdd.com
Guardado en : Acción , Animación , Series

Películas relacionadas

  • Star Trek: En la oscuridad (2013) Full 1080p Latino

    2013
    Star Trek: En la oscuridad (2013) Full 1080p Latino

    5.0 2 h 12 min 2013

    Cuando a la tripulación de la nave Enterprise le ordenan que regrese a casa, en la Tierra se enfrentan...

    Director: Vanessa Meier

    Género: Acción

    Actores: Zoe Saldana

  • Arrow (2017) Temporada 6 WEBDL 1080p Latino

    2012
    Arrow (2017) Temporada 6 WEBDL 1080p Latino

    2.3 0h 42m 2012

    Con el futuro del equipo pendiendo de un hilo, Arrow le dio una nueva definición a la frase “explotar...

    Director: Marc Guggenheim

    Género: Acción

    Actores: Willa Holland

  • The Flash (2017) Temporada 4 WEBDL 1080p Latino

    2014
    The Flash (2017) Temporada 4 WEBDL 1080p Latino

    2.8 0h 44m 2014

    Enfrentarse a una versión remanente de uno mismo es algo que nadie debería tener que hacer, pero eso...

    Director: Geoff Johns

    Género: Drama

    Actores: Tom Cavanagh

  • Dulce venganza (2016) 1080p Latino

    2016
    Dulce venganza (2016) 1080p Latino

    2.0 1 h 34 min 2016

    Un asesino de élite llamado Frank, tras ser traicionado por unos gángsters, es enviado a una cirujana...

    Director: Walter Hill

    Género: Acción

    Actores: Zak Santiago

Comentarios 2
  • Fabricio - 05 septiembre, 2017

    Link 3 caído en todos los servidores favor de chequear GRACIAS!

    • dpelis

      Administrador
      - 05 septiembre, 2017

      porq me hace perder tiempo>??
      http://prntscr.com/ghkg7y

      su ip queda registrada, antes de reportar algo revise que este en lo cierto.