Advertise here

Voltron El defensor legendario (2016) Temporada 1 WEBDL 1080p Latino

1.874 vistas
1 estrella2 estrellas3 estrellas4 estrellas5 estrellas (Ninguna valoración todavía)
Cargando…

Información de Voltron El defensor legendario (2016) Temporada 1 WEBDL 1080p Latino

Datos de la película

  • Calidad: WEBDL
  • Audio: Español Latino AC3 5.1 Netflix - Ingles AC3 5.1 Netflix
  • Subtitulos: Español Latino SRT - Ingles SRT
  • Resolución: 1920x1080p
  • Formato: MKV
  • Codec: H.264
  • Encoder: Dpelis
  • Mediainfo: Clic para Mostrar Datos Ver
  • Voltron Legendary Defender S01E01 WEDDL 1080p Latino.mkv
    Format                      : Matroska
    Format version              : Version 4 / Version 2
    File size                   : 1.94 GiB
    Duration                    : 1 h 8 min
    Overall bit rate            : 4 033 kb/s
    Movie name                  : DPeliculasHDMega.ORG
    Encoded date                : UTC 2017-08-14 00:25:58 / UTC 2017-08-13T18:48:22Z
    Writing application         : mkvmerge v10.0.0 ('To Drown In You') 64bit
    Writing library             : libebml v1.3.4 + libmatroska v1.4.5 / Lavf57.7.2

    Video
    ID                          : 1
    Format                      : AVC
    Format/Info                 : Advanced Video Codec
    Format profile              : Main@L4
    Format settings, CABAC      : Yes
    Format settings, ReFrames   : 4 frames
    Codec ID                    : V_MPEG4/ISO/AVC
    Duration                    : 1 h 8 min
    Bit rate                    : 3 500 kb/s
    Width                       : 1 920 pixels
    Height                      : 1 080 pixels
    Display aspect ratio        : 16:9
    Frame rate mode             : Constant
    Frame rate                  : 23.976 (24000/1001) FPS
    Color space                 : YUV
    Chroma subsampling          : 4:2:0
    Bit depth                   : 8 bits
    Scan type                   : Progressive
    Bits/(Pixel*Frame)          : 0.070
    Stream size                 : 1.62 GiB (84%)
    Writing library             : x264 core 148 r2708 86b7198
    Encoding settings           : cabac=1 / ref=3 / deblock=1:0:0 / analyse=0x1:0x111 / me=hex / subme=7 / psy=1 / psy_rd=1.00:0.00 / mixed_ref=1 / me_range=16 / chroma_me=1 / trellis=1 / 8x8dct=0 / cqm=0 / deadzone=21,11 / fast_pskip=1 / chroma_qp_offset=-2 / threads=12 / lookahead_threads=2 / sliced_threads=0 / nr=0 / decimate=1 / interlaced=0 / bluray_compat=0 / constrained_intra=0 / bframes=3 / b_pyramid=2 / b_adapt=1 / b_bias=0 / direct=1 / weightb=1 / open_gop=0 / weightp=2 / keyint=240 / keyint_min=24 / scenecut=40 / intra_refresh=0 / rc_lookahead=40 / rc=abr / mbtree=1 / bitrate=3500 / ratetol=1.0 / qcomp=0.60 / qpmin=0 / qpmax=69 / qpstep=4 / vbv_maxrate=20000 / vbv_bufsize=25000 / nal_hrd=none / filler=0 / ip_ratio=1.40 / aq=1:1.00
    Default                     : Yes
    Forced                      : No
    Color range                 : Limited
    Color primaries             : BT.709
    Transfer characteristics    : BT.709
    Matrix coefficients         : BT.709
    Statistics Tags Issue       : mkvmerge v10.0.0 ('To Drown In You') 64bit 2017-08-14 00:25:58 / mkvmerge v10.0.0 ('To Drown In You') 64bit 2017-08-14 00:25:58 / UTC 2017-08-13T18:48:22Z
    FromStats_BitRate           : 3475969
    FromStats_Duration          : 01:08:21.139000000
    FromStats_FrameCount        : 98329
    FromStats_StreamSize        : 1781929334

    Audio #1
    ID                          : 2
    Format                      : E-AC-3
    Format/Info                 : Enhanced Audio Coding 3
    Format settings, Endianness : Big
    Codec ID                    : A_EAC3
    Duration                    : 1 h 8 min
    Bit rate mode               : Constant
    Bit rate                    : 192 kb/s
    Channel(s)                  : 6 channels
    Channel positions           : Front: L C R, Side: L R, LFE
    Sampling rate               : 48.0 kHz
    Frame rate                  : 187.500 FPS (256 spf)
    Compression mode            : Lossy
    Delay relative to video     : 24 ms
    Stream size                 : 94.4 MiB (5%)
    Language                    : Spanish
    Service kind                : Complete Main
    Default                     : Yes
    Forced                      : No
    Statistics Tags Issue       : mkvmerge v10.0.0 ('To Drown In You') 64bit 2017-08-14 00:25:58 / mkvmerge v10.0.0 ('To Drown In You') 64bit 2017-08-14 00:25:58 / UTC 2017-08-13T18:48:22Z
    FromStats_BitRate           : 192000
    FromStats_Duration          : 01:08:45.856000000
    FromStats_FrameCount        : 128933
    FromStats_StreamSize        : 99020544

    Audio #2
    ID                          : 3
    Format                      : AC-3
    Format/Info                 : Audio Coding 3
    Format settings, Endianness : Big
    Codec ID                    : A_AC3
    Duration                    : 1 h 8 min
    Bit rate mode               : Constant
    Bit rate                    : 384 kb/s
    Channel(s)                  : 6 channels
    Channel positions           : Front: L C R, Side: L R, LFE
    Sampling rate               : 48.0 kHz
    Frame rate                  : 31.250 FPS (1536 spf)
    Bit depth                   : 16 bits
    Compression mode            : Lossy
    Stream size                 : 189 MiB (10%)
    Title                       : Surround
    Language                    : English
    Service kind                : Complete Main
    Default                     : No
    Forced                      : No
    Statistics Tags Issue       : mkvmerge v10.0.0 ('To Drown In You') 64bit 2017-08-14 00:25:58 / mkvmerge v10.0.0 ('To Drown In You') 64bit 2017-08-14 00:25:58 / UTC 2017-08-13T18:48:22Z
    FromStats_BitRate           : 384000
    FromStats_Duration          : 01:08:41.760000000
    FromStats_FrameCount        : 128805
    FromStats_StreamSize        : 197844480

    Text #1
    ID                          : 4
    Format                      : UTF-8
    Codec ID                    : S_TEXT/UTF8
    Codec ID/Info               : UTF-8 Plain Text
    Language                    : Spanish
    Default                     : Yes
    Forced                      : No
    Statistics Tags Issue       : mkvmerge v10.0.0 ('To Drown In You') 64bit 2017-08-14 00:25:58 / mkvmerge v10.0.0 ('To Drown In You') 64bit 2017-08-14 00:25:58 / UTC 2017-08-13T18:48:22Z
    FromStats_BitRate           : 76
    FromStats_Duration          : 01:06:32.446000000
    FromStats_FrameCount        : 825
    FromStats_StreamSize        : 38368

    Text #2
    ID                          : 5
    Format                      : ASS
    Codec ID                    : S_TEXT/ASS
    Codec ID/Info               : Advanced Sub Station Alpha
    Compression mode            : Lossless
    Language                    : English
    Default                     : No
    Forced                      : No
    Statistics Tags Issue       : mkvmerge v10.0.0 ('To Drown In You') 64bit 2017-08-14 00:25:58 / mkvmerge v10.0.0 ('To Drown In You') 64bit 2017-08-14 00:25:58 / UTC 2017-08-13T18:48:22Z
    FromStats_BitRate           : 124
    FromStats_Duration          : 01:06:04.208000000
    FromStats_FrameCount        : 987
    FromStats_StreamSize        : 61754

  • Peso: 650MB C/U - Excepto Capitulo 1 1/94 GB

Sinopsis

Descargar Serie de Netflix Voltron El defensor legendario hd latino  Cinco adolescentes terrícolas -Keith, Lance, Hunk, Pidge y Shiro- se ven envueltos en una serie de batallas intergalácticas y se convierten en la última línea de defensa para Arus y otros planetas contra la malvada fuerza alienígena liderada por el Rey Zarkon.

Voltron: Legendary Defender es una serie de animación original de Netflix desarrollada en colaboración con DreamWorks Animation y basada en la popular serie de animación del mismo nombre que presentaba las aventuras de un equipo de astronautas encargados de pilotar un gigante súper robot conocido como “Voltron“.

Esta serie sirve como un ‘reboot’ y un homenaje a la franquicia de Voltron, en la cual se engloban series, películas, cómics y figuras de acción. Asimismo, presenta un enfoque más serio para las historias que siguen las andanzas y enfrentamientos en los que se ven involucradas las distintas encarnaciones del equipo que debe salvar al universo haciendo uso del gran robot Voltron.

La serie original se centraba en el equipo conformado por cinco hombres y la princesa del planeta Arus, quienes pilotaban los robots en forma de leones y se unían para formar un robot de guerra aún más grande, acabando con monstruosos vilanos de otras galaxias.

Ficha técnica

  • Titulo original: Voltron: Legendary Defender Season 1
  • Fecha de lanzamiento: 10-06-2016 (United States of America)
  • Género: Acción, Animación, Series
  • Puntuación: 0.0 0 votos
  • Duración:
    0h 23m

Video trailer de la película

Enlaces de descarga

Descargar Voltron El defensor legendario (2016) Temporada 1 WEBDL 1080p Latino
Descargar

dpeliculas

Aportes de DPeliculasHDmega la pass es:dpeliculashdmega.org Aportes de CinemaniaHD la pass es:cinemaniahdd.com
Guardado en : Acción , Animación , Series

Películas relacionadas

  • Dulce venganza (2016) 1080p Latino

    2016
    Dulce venganza (2016) 1080p Latino

    2.0 1 h 34 min 2016

    Un asesino de élite llamado Frank, tras ser traicionado por unos gángsters, es enviado a una cirujana...

    Director: Walter Hill

    Género: Acción

    Actores: Zak Santiago

  • The Walking Dead (2017) Temporada 8 WEB-DL 1080p Latino

    2017
    The Walking Dead (2017) Temporada 8 WEB-DL 1080p Latino

    5.0 0h 42m 2017

    Rick, Maggie y Ezekiel reúnen a sus comunidades para derrotar a Negan y los salvadores. Gregory intenta...

    Director: Frank Darabont

    Género: Action & Adventure

    Actores: Norman Reedus

  • Vikingos Temporada 5 (2017) WEB-DL Amazon 1080p Latino

    2017
    Vikingos Temporada 5 (2017) WEB-DL Amazon 1080p Latino

    0.0 0h 44m 2017

    Sigue las aventuras de Ragnar Lothbrok, el héroe más grande de su época. La serie narra las sagas...

    Director: Michael Hirst

    Género: Action & Adventure

    Actores: Moe Dunford

  • La LEGO Ninjago pelicula (2017) Full 1080p Latino

    2017
    La LEGO Ninjago pelicula (2017) Full 1080p Latino

    4.0 1h 40m 2017

    Una tierra lejana amenazada por la oscuridad. En este lugar llamado Ninjago, las fuerzas del bien y del...

    Director: Paul Fisher

    Género: Acción

    Actores: Zach Woods

Comentarios 6
  • Heider - 05 septiembre, 2017

    Muchas gracias serias tan amable de subir la serie guardianes de la galaxia serie animada en esta calidad

    • dpelis

      Administrador
      - 05 septiembre, 2017

      se agregara

  • Cheveguerra - 25 agosto, 2017

    Estarian geniales las demas temporadas!

    Saludos

    • dpelis

      Administrador
      - 28 agosto, 2017

      se agregaran

  • rodigolofonte - 14 agosto, 2017

    muchas gracias, espero puedas sebir la temporada 2 y 3

    • dpelis

      Administrador
      - 14 agosto, 2017

      esta semana se tratara de publicar