2012 (2009) Full 1080p Latino

1.079 vistas
1 estrella2 estrellas3 estrellas4 estrellas5 estrellas (2 votos, promedio: 5,00 de 5)
Cargando…

Información de 2012 (2009) Full 1080p Latino

Datos de la película

  • Calidad: Full 1080p
  • Audio: Español Latino AC3 5.1 BLURAY - Ingles DTS 5.1 BLURAY
  • Subtitulos: Español Latino PGS - Ingles PGS
  • Resolución: 1920X1080p
  • Formato: MKV
  • Codec: H.264
  • Encoder: Dracarys
  • Mediainfo: Clic para Mostrar Datos Ver
  • Format                                   : Matroska
    Format version                           : Version 4 / Version 2
    File size                                : 6.55 GiB
    Duration                                 : 2 h 37 min
    Overall bit rate                         : 5 943 kb/s
    Movie name                               : CinemaniaHDD.com
    Encoded date                             : UTC 2018-01-22 02:30:04 / UTC 2018-01-21T21:24:08Z
    Writing application                      : mkvmerge v15.0.0 ('Duel with the Devil') 64-bit
    Writing library                          : libebml v1.3.5 + libmatroska v1.4.5 / Lavf57.7.2

    Video
    ID                                       : 1
    Format                                   : AVC
    Format/Info                              : Advanced Video Codec
    Format profile                           : High@L4.1
    Format settings                          : CABAC / 4 Ref Frames
    Format settings, CABAC                   : Yes
    Format settings, RefFrames               : 4 frames
    Codec ID                                 : V_MPEG4/ISO/AVC
    Duration                                 : 2 h 37 min
    Bit rate                                 : 3 867 kb/s
    Width                                    : 1 920 pixels
    Height                                   : 1 080 pixels
    Display aspect ratio                     : 16:9
    Frame rate mode                          : Constant
    Frame rate                               : 23.976 (24000/1001) FPS
    Color space                              : YUV
    Chroma subsampling                       : 4:2:0
    Bit depth                                : 8 bits
    Scan type                                : Progressive
    Bits/(Pixel*Frame)                       : 0.078
    Stream size                              : 4.26 GiB (65%)
    Title                                    : 2012 (2009) Full 1080p Latino
    Writing library                          : x264 core 148 r2708 86b7198
    Encoding settings                        : cabac=1 / ref=4 / deblock=1:0:0 / analyse=0x3:0x133 / me=esa / subme=10 / psy=1 / psy_rd=1.00:0.00 / mixed_ref=1 / me_range=24 / chroma_me=1 / trellis=2 / 8x8dct=1 / cqm=0 / deadzone=21,11 / fast_pskip=1 / chroma_qp_offset=-2 / threads=34 / lookahead_threads=5 / sliced_threads=0 / nr=0 / decimate=1 / interlaced=0 / bluray_compat=0 / constrained_intra=0 / bframes=8 / b_pyramid=2 / b_adapt=2 / b_bias=0 / direct=3 / weightb=1 / open_gop=0 / weightp=2 / keyint=240 / keyint_min=24 / scenecut=40 / intra_refresh=0 / rc_lookahead=60 / rc=crf / mbtree=1 / crf=20.0 / qcomp=0.60 / qpmin=0 / qpmax=69 / qpstep=4 / vbv_maxrate=62500 / vbv_bufsize=78125 / crf_max=0.0 / nal_hrd=none / filler=0 / ip_ratio=1.40 / aq=1:1.00
    Language                                 : English
    Default                                  : Yes
    Forced                                   : No
    Color range                              : Limited
    Color primaries                          : BT.709
    Transfer characteristics                 : BT.709
    Matrix coefficients                      : BT.709
    Statistics Tags Issue                    : mkvmerge v15.0.0 ('Duel with the Devil') 64-bit 2018-01-22 02:30:04 / mkvmerge v15.0.0 ('Duel with the Devil') 64-bit 2018-01-22 02:30:04 / UTC 2018-01-21T21:24:08Z
    FromStats_BitRate                        : 3959860
    FromStats_Duration                       : 02:37:49.460000000
    FromStats_FrameCount                     : 227040
    FromStats_StreamSize                     : 4687217453

    Audio #1
    ID                                       : 2
    Format                                   : AC-3
    Format/Info                              : Audio Coding 3
    Format settings, Endianness              : Big
    Codec ID                                 : A_AC3
    Duration                                 : 2 h 37 min
    Bit rate mode                            : Constant
    Bit rate                                 : 448 kb/s
    Channel(s)                               : 6 channels
    Channel positions                        : Front: L C R, Side: L R, LFE
    Sampling rate                            : 48.0 kHz
    Frame rate                               : 31.250 FPS (1536 SPF)
    Bit depth                                : 16 bits
    Compression mode                         : Lossy
    Stream size                              : 506 MiB (8%)
    Language                                 : Spanish
    Service kind                             : Complete Main
    Default                                  : Yes
    Forced                                   : No
    Statistics Tags Issue                    : mkvmerge v15.0.0 ('Duel with the Devil') 64-bit 2018-01-22 02:30:04 / mkvmerge v15.0.0 ('Duel with the Devil') 64-bit 2018-01-22 02:30:04 / UTC 2018-01-21T21:24:08Z
    FromStats_BitRate                        : 448000
    FromStats_Duration                       : 02:37:49.472000000
    FromStats_FrameCount                     : 295921
    FromStats_StreamSize                     : 530290432

    Audio #2
    ID                                       : 3
    Format                                   : DTS
    Format/Info                              : Digital Theater Systems
    Mode                                     : 16
    Format settings, Endianness              : Big
    Codec ID                                 : A_DTS
    Duration                                 : 2 h 37 min
    Bit rate mode                            : Constant
    Bit rate                                 : 1 509 kb/s
    Channel(s)                               : 6 channels
    Channel positions                        : Front: L C R, Side: L R, LFE
    Sampling rate                            : 48.0 kHz
    Frame rate                               : 93.750 FPS (512 SPF)
    Bit depth                                : 24 bits
    Compression mode                         : Lossy
    Stream size                              : 1.66 GiB (25%)
    Language                                 : English
    Default                                  : No
    Forced                                   : No
    Statistics Tags Issue                    : mkvmerge v15.0.0 ('Duel with the Devil') 64-bit 2018-01-22 02:30:04 / mkvmerge v15.0.0 ('Duel with the Devil') 64-bit 2018-01-22 02:30:04 / UTC 2018-01-21T21:24:08Z
    FromStats_BitRate                        : 1508999
    FromStats_Duration                       : 02:37:49.451000000
    FromStats_FrameCount                     : 887761
    FromStats_StreamSize                     : 1786175132

    Text #1
    ID                                       : 4
    Format                                   : PGS
    Muxing mode                              : zlib
    Codec ID                                 : S_HDMV/PGS
    Codec ID/Info                            : Picture based subtitle format used on BDs/HD-DVDs
    Language                                 : Spanish
    Default                                  : Yes
    Forced                                   : No
    Statistics Tags Issue                    : mkvmerge v15.0.0 ('Duel with the Devil') 64-bit 2018-01-22 02:30:04 / mkvmerge v15.0.0 ('Duel with the Devil') 64-bit 2018-01-22 02:30:04 / UTC 2018-01-21T21:24:08Z
    FromStats_BitRate                        : 31181
    FromStats_Duration                       : 02:36:18.786000000
    FromStats_FrameCount                     : 3803
    FromStats_StreamSize                     : 36555242

    Text #2
    ID                                       : 5
    Format                                   : PGS
    Muxing mode                              : zlib
    Codec ID                                 : S_HDMV/PGS
    Codec ID/Info                            : Picture based subtitle format used on BDs/HD-DVDs
    Language                                 : English
    Default                                  : No
    Forced                                   : No
    Statistics Tags Issue                    : mkvmerge v15.0.0 ('Duel with the Devil') 64-bit 2018-01-22 02:30:04 / mkvmerge v15.0.0 ('Duel with the Devil') 64-bit 2018-01-22 02:30:04 / UTC 2018-01-21T21:24:08Z
    FromStats_BitRate                        : 23286
    FromStats_Duration                       : 02:22:34.629000000
    FromStats_FrameCount                     : 1881
    FromStats_StreamSize                     : 24901133

    Menu
    00:00:00.000                             : :Chapter 1
    00:01:17.160                             : :Chapter 2
    00:02:09.087                             : :Chapter 3
    00:03:07.646                             : :Chapter 4
    00:04:57.255                             : :Chapter 5
    00:05:46.638                             : :Chapter 6
    00:07:25.111                             : :Chapter 7
    00:10:42.600                             : :Chapter 8
    00:12:41.135                             : :Chapter 9
    00:14:26.032                             : :Chapter 10
    00:18:18.180                             : :Chapter 11
    00:25:38.537                             : :Chapter 12
    00:30:48.764                             : :Chapter 13
    00:36:09.959                             : :Chapter 14
    00:38:53.414                             : :Chapter 15
    00:42:18.453                             : :Chapter 16
    00:44:43.347                             : :Chapter 17
    00:49:07.486                             : :Chapter 18
    00:52:16.717                             : :Chapter 19
    00:56:50.616                             : :Chapter 20
    00:58:00.268                             : :Chapter 21
    01:00:09.439                             : :Chapter 22
    01:03:31.349                             : :Chapter 23
    01:07:16.491                             : :Chapter 24
    01:10:08.079                             : :Chapter 25
    01:13:47.590                             : :Chapter 26
    01:24:19.054                             : :Chapter 27
    01:29:10.220                             : :Chapter 28
    01:32:07.022                             : :Chapter 29
    01:33:38.029                             : :Chapter 30
    01:42:48.120                             : :Chapter 31
    01:48:09.566                             : :Chapter 32
    01:56:41.453                             : :Chapter 33
    01:59:39.798                             : :Chapter 34
    02:06:50.520                             : :Chapter 35
    02:09:12.161                             : :Chapter 36
    02:09:47.571                             : :Chapter 37
    02:13:21.952                             : :Chapter 38
    02:23:24.679                             : :Chapter 39

  • Peso: 6.55 GiB

Sinopsis

El geólogo Adrian Helmsley, descubre de que el núcleo de la Tierra se está calentando. Teme que la corteza se vuelva inestable, coincidiendo con las predicciones mayas del fin del mundo. Entre tanto, los líderes del mundo “venden” plazas para escapar del cataclismo. El escritor Curtis Jackson tropieza con esa información… y luchará por salvar a su familia mientras el suelo se hunde bajo sus pies; y los terremotos y las erupciones volcánicas destruyen el mundo tal y como lo conocemos.

Ficha técnica

Video trailer de la película

Enlaces de descarga

Rip de Bluray

Descargar 2012 (2009) Full 1080p Latino




Aportes de DPeliculasHDmega la pass es:dpeliculashdmega.org Aportes de CinemaniaHD la pass es:cinemaniahdd.com

Películas relacionadas

  • Niños del hombre (2006) Full 1080p Latino

    2006
    Niños del hombre (2006) Full 1080p Latino

    0.0 1 h 49 min 2006

    Año 2027: el ser humano está al borde de la extinción: los hombres han perdido la capacidad de procrear...

    Director: Terry Needham

    Género: Acción

    Actores: Yolanda Vazquez

  • Unlocked (2017) 1080p Latino

    2017
    Unlocked (2017) 1080p Latino

    3.0 1h 43m 2017

    Gira en torno a una agente de la CIA, especializada en interrogatorios, que es engañada por un sospechoso,...

    Director: Vera Homolacova

    Género: Acción

    Actores: Tosin Cole

  • Para atrapar al ladrón (1955) Full 1080p Latino

    1955
    Para atrapar al ladrón (1955) Full 1080p Latino

    0.0 1h 46m 1955

    A pesar de que John Robie "El Gato" (Cary Grant) es un ladrón de joyas reformado, se convierte en el...

    Director: Alfred Hitchcock

    Género: Crimen

    Actores: William 'Wee Willie' Davis

  • Si decido quedarme (2014) Full 1080p Latino

    2014
    Si decido quedarme (2014) Full 1080p Latino

    5.0 1 h 46 min 2014

    Mia es una joven de 17 años que parece tenerlo todo en la vida: una famila adorable, un novio que la...

    Director: R.J. Cutler

    Género: Drama

    Actores: William C. Vaughan

Comentarios 4
  • Guido - 23 enero, 2018

    Hola cual es la contraseña!! pongo las 2 de abajo y no me salen!!!! ME DICE!! ERROR QUE PUEDO HACERª!!!!

    • dpelis - 23 enero, 2018

      cinemaniahdd.com
      todo minuscula. debe tener winrar ultima version y full. si descargo de mega y da error bajar la parte de error de google drive

  • Raul - 22 enero, 2018

    Muchas Gracias por subirla

  • TorukMato - 22 enero, 2018

    Esperaba esta….gracias Camarada!