American Pie (1999) [UNRATED] Full 1080p Latino

1.079 vistas
1 estrella2 estrellas3 estrellas4 estrellas5 estrellas (5 votos, promedio: 4,60 de 5)
Cargando…

Información de American Pie (1999) [UNRATED] Full 1080p Latino

Datos de la película

  • Calidad: Full 1080p
  • Audio: Español Latino AC3 2.0 BLURAY - Ingles DTS 5.1 BLURAY
  • Subtitulos: Español Latino PGS - Ingles PGS
  • Resolución: 1920X1080p
  • Formato: MKV
  • Codec: H.264
  • Encoder: Dracarys
  • Mediainfo: Clic para Mostrar Datos Ver
  • Format                                   : Matroska
    Format version                           : Version 4 / Version 2
    File size                                : 5.38 GiB
    Duration                                 : 1 h 35 min
    Overall bit rate                         : 8 055 kb/s
    Movie name                               : CinemaniaHDD.com
    Encoded date                             : UTC 2018-02-09 02:38:15 / UTC 2018-01-25T07:42:40Z
    Writing application                      : mkvmerge v15.0.0 ('Duel with the Devil') 64-bit
    Writing library                          : libebml v1.3.5 + libmatroska v1.4.5 / Lavf57.7.2

    Video
    ID                                       : 1
    Format                                   : AVC
    Format/Info                              : Advanced Video Codec
    Format profile                           : High@L4.1
    Format settings                          : CABAC / 4 Ref Frames
    Format settings, CABAC                   : Yes
    Format settings, RefFrames               : 4 frames
    Codec ID                                 : V_MPEG4/ISO/AVC
    Duration                                 : 1 h 35 min
    Bit rate                                 : 6 066 kb/s
    Width                                    : 1 920 pixels
    Height                                   : 1 080 pixels
    Display aspect ratio                     : 16:9
    Frame rate mode                          : Constant
    Frame rate                               : 23.976 (24000/1001) FPS
    Color space                              : YUV
    Chroma subsampling                       : 4:2:0
    Bit depth                                : 8 bits
    Scan type                                : Progressive
    Bits/(Pixel*Frame)                       : 0.122
    Stream size                              : 4.05 GiB (75%)
    Title                                    : American Pie (1999) [UNRATED] Full 1080p Latino
    Writing library                          : x264 core 148 r2708 86b7198
    Encoding settings                        : cabac=1 / ref=4 / deblock=1:0:0 / analyse=0x3:0x133 / me=esa / subme=10 / psy=1 / psy_rd=1.00:0.00 / mixed_ref=1 / me_range=24 / chroma_me=1 / trellis=2 / 8x8dct=1 / cqm=0 / deadzone=21,11 / fast_pskip=1 / chroma_qp_offset=-2 / threads=34 / lookahead_threads=5 / sliced_threads=0 / nr=0 / decimate=1 / interlaced=0 / bluray_compat=0 / constrained_intra=0 / bframes=8 / b_pyramid=2 / b_adapt=2 / b_bias=0 / direct=3 / weightb=1 / open_gop=0 / weightp=2 / keyint=240 / keyint_min=24 / scenecut=40 / intra_refresh=0 / rc_lookahead=60 / rc=crf / mbtree=1 / crf=20.0 / qcomp=0.60 / qpmin=0 / qpmax=69 / qpstep=4 / vbv_maxrate=62500 / vbv_bufsize=78125 / crf_max=0.0 / nal_hrd=none / filler=0 / ip_ratio=1.40 / aq=1:1.00
    Language                                 : English
    Default                                  : Yes
    Forced                                   : No
    Color range                              : Limited
    Color primaries                          : BT.709
    Transfer characteristics                 : BT.709
    Matrix coefficients                      : BT.709
    Statistics Tags Issue                    : mkvmerge v15.0.0 ('Duel with the Devil') 64-bit 2018-02-09 02:38:15 / mkvmerge v15.0.0 ('Duel with the Devil') 64-bit 2018-02-09 02:38:15 / UTC 2018-01-25T07:42:40Z
    FromStats_BitRate                        : 6198608
    FromStats_Duration                       : 01:35:37.607000000
    FromStats_FrameCount                     : 137565
    FromStats_StreamSize                     : 4445647488

    Audio #1
    ID                                       : 2
    Format                                   : AC-3
    Format/Info                              : Audio Coding 3
    Format settings, Endianness              : Big
    Codec ID                                 : A_AC3
    Duration                                 : 1 h 35 min
    Bit rate mode                            : Constant
    Bit rate                                 : 320 kb/s
    Channel(s)                               : 2 channels
    Channel positions                        : Front: L R
    Sampling rate                            : 44.1 kHz
    Frame rate                               : 28.711 FPS (1536 SPF)
    Bit depth                                : 16 bits
    Compression mode                         : Lossy
    Stream size                              : 219 MiB (4%)
    Language                                 : Spanish
    Service kind                             : Complete Main
    Default                                  : Yes
    Forced                                   : No
    Statistics Tags Issue                    : mkvmerge v15.0.0 ('Duel with the Devil') 64-bit 2018-02-09 02:38:15 / mkvmerge v15.0.0 ('Duel with the Devil') 64-bit 2018-02-09 02:38:15 / UTC 2018-01-25T07:42:40Z
    FromStats_BitRate                        : 319999
    FromStats_Duration                       : 01:35:37.013000000
    FromStats_FrameCount                     : 164715
    FromStats_StreamSize                     : 229480490

    Audio #2
    ID                                       : 3
    Format                                   : DTS
    Format/Info                              : Digital Theater Systems
    Mode                                     : 16
    Format settings, Endianness              : Big
    Codec ID                                 : A_DTS
    Duration                                 : 1 h 35 min
    Bit rate mode                            : Constant
    Bit rate                                 : 1 509 kb/s
    Channel(s)                               : 6 channels
    Channel positions                        : Front: L C R, Side: L R, LFE
    Sampling rate                            : 48.0 kHz
    Frame rate                               : 93.750 FPS (512 SPF)
    Bit depth                                : 24 bits
    Compression mode                         : Lossy
    Stream size                              : 1.01 GiB (19%)
    Language                                 : English
    Default                                  : No
    Forced                                   : No
    Statistics Tags Issue                    : mkvmerge v15.0.0 ('Duel with the Devil') 64-bit 2018-02-09 02:38:15 / mkvmerge v15.0.0 ('Duel with the Devil') 64-bit 2018-02-09 02:38:15 / UTC 2018-01-25T07:42:40Z
    FromStats_BitRate                        : 1509000
    FromStats_Duration                       : 01:35:37.664000000
    FromStats_FrameCount                     : 537906
    FromStats_StreamSize                     : 1082266872

    Text #1
    ID                                       : 4
    Format                                   : PGS
    Muxing mode                              : zlib
    Codec ID                                 : S_HDMV/PGS
    Codec ID/Info                            : Picture based subtitle format used on BDs/HD-DVDs
    Language                                 : English
    Default                                  : No
    Forced                                   : No
    Statistics Tags Issue                    : mkvmerge v15.0.0 ('Duel with the Devil') 64-bit 2018-02-09 02:38:15 / mkvmerge v15.0.0 ('Duel with the Devil') 64-bit 2018-02-09 02:38:15 / UTC 2018-01-25T07:42:40Z
    FromStats_BitRate                        : 51186
    FromStats_Duration                       : 01:35:09.245000000
    FromStats_FrameCount                     : 3339
    FromStats_StreamSize                     : 36529696

    Text #2
    ID                                       : 5
    Format                                   : PGS
    Muxing mode                              : zlib
    Codec ID                                 : S_HDMV/PGS
    Codec ID/Info                            : Picture based subtitle format used on BDs/HD-DVDs
    Language                                 : Spanish
    Default                                  : No
    Forced                                   : No
    Statistics Tags Issue                    : mkvmerge v15.0.0 ('Duel with the Devil') 64-bit 2018-02-09 02:38:15 / mkvmerge v15.0.0 ('Duel with the Devil') 64-bit 2018-02-09 02:38:15 / UTC 2018-01-25T07:42:40Z
    FromStats_BitRate                        : 31521
    FromStats_Duration                       : 01:35:01.404000000
    FromStats_FrameCount                     : 2420
    FromStats_StreamSize                     : 22464480

    Menu
    00:00:00.000                             : :00:00:00.000
    00:01:38.932                             : :00:01:38.932
    00:04:00.323                             : :00:04:00.323
    00:06:19.129                             : :00:06:19.129
    00:12:19.781                             : :00:12:19.781
    00:16:48.549                             : :00:16:48.549
    00:24:08.238                             : :00:24:08.238
    00:27:53.755                             : :00:27:53.755
    00:31:33.058                             : :00:31:33.058
    00:35:52.442                             : :00:35:52.442
    00:42:46.689                             : :00:42:46.689
    01:00:11.399                             : :01:00:11.399
    01:03:41.359                             : :01:03:41.359
    01:07:41.724                             : :01:07:41.724
    01:11:02.383                             : :01:11:02.383
    01:16:47.436                             : :01:16:47.436
    01:27:13.770                             : :01:27:13.770
    01:31:27.482                             : :01:31:27.440

  • Peso: 5.38 GiB

Sinopsis

Una legión de jóvenes inexpertos están intentando apuntarse un tanto con el sexo opuesto. Jim es como cualquier otro chico de su edad, un joven sano y vigoroso que también resulta ser virgen, el principal motivo de su galopante desesperación. Desde que sus padres le sorprendieron viendo películas pornográficas, las cosas han ido a peor. En casa, su bienintencionado padre extiende un celo mortificador en todo lo referente a la educación sexual de su hijo; en el colegio, las cosas no van mucho mejor: sus experiencias con una belleza perteneciente a un programa de intercambio tienen toda la pinta de fracasar. Así que su último recurso se llama Michelle, una integrante de la banda de música que resulta ser todo un prodigio.

 

Aviso: En el minuto 36 hay un pequeño desface que dura Solo 1 minuto…

Ficha técnica

Video trailer de la película

Enlaces de descarga

Rip de Bluray

Descargar American Pie (1999) [UNRATED] Full 1080p Latino




Aportes de DPeliculasHDmega la pass es:dpeliculashdmega.org Aportes de CinemaniaHD la pass es:cinemaniahdd.com

Películas relacionadas

  • Mamá de alquiler (2008) Full 1080p Latino

    2008
    Mamá de alquiler (2008) Full 1080p Latino

    0.0 33h 28m 2008

    Una brillante mujer de negocios sueña con tener un hijo, pero descubre que no es fértil, por lo que...

    Director: Michael McCullers

    Género: Comedia

    Actores: Will Forte

  • La telaraña de Charlotte (2006) Full 1080p Latino

    2006
    La telaraña de Charlotte (2006) Full 1080p Latino

    0.0 1 h 36 min 2006

    Wilbur, un cerdito que vive en una granja, se entera de que su posible destino final es acabar en el...

    Director: Gary Winick

    Género: Comedia

    Actores: Thomas Haden Church

  • Australia (2008) Full 1080p Latino

    2008
    Australia (2008) Full 1080p Latino

    0.0 2 h 45 min 2008

    Lady Sarah Ashley (Nicole Kidman), una aristócrata inglesa, se ha pasado la vida persiguiendo la perfección...

    Director: Sophie Fabbri-Jackson

    Género: Aventura

    Actores: Yuen Wah

  • Guardianes de la Noche (2004) Full 1080p Latino

    2004
    Guardianes de la Noche (2004) Full 1080p Latino

    5.0 1 h 54 min 2004

    Al caer la noche, las fuerzas de la oscuridad combaten a los “Otros”, sobrehumanos, Guardianes de...

    Director: Timur Bekmambetov

    Género: Acción

    Actores: Zhanna Friske

Comentarios 4
  • Rxdrigx17 - 09 febrero, 2018

    GRACIAS POR TRAER LAS MEJORES PELÍCULAS, LEJOS LA MEJOR PÁGINA 😀

  • iDeztrukxion - 09 febrero, 2018

    Hola gracias por el aporte, pero en los enlaces me dice que no se puede ingresar a la pagina =(

  • Brau - 09 febrero, 2018

    La subiran en portada negra?

    • Dracarys - 09 febrero, 2018

      en algunos dias mas.