American Pie: El reencuentro (2012) [UNRATED] Full 1080p Latino

849 vistas
1 estrella2 estrellas3 estrellas4 estrellas5 estrellas (2 votos, promedio: 5,00 de 5)
Cargando…

Información de American Pie: El reencuentro (2012) [UNRATED] Full 1080p Latino

Datos de la película

  • Calidad: Full 1080p
  • Audio: Español Latino DTS 5.1 BLURAY - Ingles DTS 5.1 BLURAY
  • Subtitulos: Español Latino PGS - Ingles PGS
  • Resolución: 1920X1080p
  • Formato: MKV
  • Codec: H.264
  • Encoder: Dracarys
  • Mediainfo: Clic para Mostrar Datos Ver
  • Format                                   : Matroska
    Format version                           : Version 4 / Version 2
    File size                                : 12.3 GiB
    Duration                                 : 1 h 53 min
    Overall bit rate                         : 15.4 Mb/s
    Movie name                               : CinemaniaHDD.com
    Encoded date                             : UTC 2018-02-09 03:54:44 / UTC 2018-01-25T19:57:51Z
    Writing application                      : mkvmerge v15.0.0 ('Duel with the Devil') 64-bit
    Writing library                          : libebml v1.3.5 + libmatroska v1.4.5 / Lavf57.7.2

    Video
    ID                                       : 1
    Format                                   : AVC
    Format/Info                              : Advanced Video Codec
    Format profile                           : High@L4.1
    Format settings                          : CABAC / 4 Ref Frames
    Format settings, CABAC                   : Yes
    Format settings, RefFrames               : 4 frames
    Codec ID                                 : V_MPEG4/ISO/AVC
    Duration                                 : 1 h 53 min
    Bit rate                                 : 12.8 Mb/s
    Width                                    : 1 920 pixels
    Height                                   : 1 080 pixels
    Display aspect ratio                     : 16:9
    Frame rate mode                          : Constant
    Frame rate                               : 23.976 (24000/1001) FPS
    Color space                              : YUV
    Chroma subsampling                       : 4:2:0
    Bit depth                                : 8 bits
    Scan type                                : Progressive
    Bits/(Pixel*Frame)                       : 0.258
    Stream size                              : 10.2 GiB (83%)
    Title                                    : American Pie: El reencuentro (2012) [UNRATED] Full 1080p Latino
    Writing library                          : x264 core 148 r2708 86b7198
    Encoding settings                        : cabac=1 / ref=4 / deblock=1:0:0 / analyse=0x3:0x133 / me=esa / subme=10 / psy=1 / psy_rd=1.00:0.00 / mixed_ref=1 / me_range=24 / chroma_me=1 / trellis=2 / 8x8dct=1 / cqm=0 / deadzone=21,11 / fast_pskip=1 / chroma_qp_offset=-2 / threads=34 / lookahead_threads=5 / sliced_threads=0 / nr=0 / decimate=1 / interlaced=0 / bluray_compat=0 / constrained_intra=0 / bframes=8 / b_pyramid=2 / b_adapt=2 / b_bias=0 / direct=3 / weightb=1 / open_gop=0 / weightp=2 / keyint=240 / keyint_min=24 / scenecut=40 / intra_refresh=0 / rc_lookahead=60 / rc=crf / mbtree=1 / crf=20.0 / qcomp=0.60 / qpmin=0 / qpmax=69 / qpstep=4 / vbv_maxrate=62500 / vbv_bufsize=78125 / crf_max=0.0 / nal_hrd=none / filler=0 / ip_ratio=1.40 / aq=1:1.00
    Language                                 : English
    Default                                  : Yes
    Forced                                   : No
    Color range                              : Limited
    Color primaries                          : BT.709
    Transfer characteristics                 : BT.709
    Matrix coefficients                      : BT.709
    Statistics Tags Issue                    : mkvmerge v15.0.0 ('Duel with the Devil') 64-bit 2018-02-09 03:54:44 / mkvmerge v15.0.0 ('Duel with the Devil') 64-bit 2018-02-09 03:54:44 / UTC 2018-01-25T19:57:51Z
    FromStats_BitRate                        : 13110738
    FromStats_Duration                       : 01:53:51.450000000
    FromStats_FrameCount                     : 163791
    FromStats_StreamSize                     : 11195669241

    Audio #1
    ID                                       : 2
    Format                                   : DTS
    Format/Info                              : Digital Theater Systems
    Mode                                     : 16
    Format settings, Endianness              : Big
    Codec ID                                 : A_DTS
    Duration                                 : 1 h 53 min
    Bit rate mode                            : Constant
    Bit rate                                 : 768 kb/s
    Channel(s)                               : 6 channels
    Channel positions                        : Front: L C R, Side: L R, LFE
    Sampling rate                            : 48.0 kHz
    Frame rate                               : 93.750 FPS (512 SPF)
    Bit depth                                : 24 bits
    Compression mode                         : Lossy
    Stream size                              : 625 MiB (5%)
    Language                                 : Spanish
    Default                                  : Yes
    Forced                                   : No
    Statistics Tags Issue                    : mkvmerge v15.0.0 ('Duel with the Devil') 64-bit 2018-02-09 03:54:44 / mkvmerge v15.0.0 ('Duel with the Devil') 64-bit 2018-02-09 03:54:44 / UTC 2018-01-25T19:57:51Z
    FromStats_BitRate                        : 767999
    FromStats_Duration                       : 01:53:51.478000000
    FromStats_FrameCount                     : 640451
    FromStats_StreamSize                     : 655821824

    Audio #2
    ID                                       : 3
    Format                                   : DTS
    Format/Info                              : Digital Theater Systems
    Mode                                     : 16
    Format settings, Endianness              : Big
    Codec ID                                 : A_DTS
    Duration                                 : 1 h 53 min
    Bit rate mode                            : Constant
    Bit rate                                 : 1 509 kb/s
    Channel(s)                               : 6 channels
    Channel positions                        : Front: L C R, Side: L R, LFE
    Sampling rate                            : 48.0 kHz
    Frame rate                               : 93.750 FPS (512 SPF)
    Bit depth                                : 24 bits
    Compression mode                         : Lossy
    Stream size                              : 1.20 GiB (10%)
    Language                                 : English
    Default                                  : No
    Forced                                   : No
    Statistics Tags Issue                    : mkvmerge v15.0.0 ('Duel with the Devil') 64-bit 2018-02-09 03:54:44 / mkvmerge v15.0.0 ('Duel with the Devil') 64-bit 2018-02-09 03:54:44 / UTC 2018-01-25T19:57:51Z
    FromStats_BitRate                        : 1508999
    FromStats_Duration                       : 01:53:51.478000000
    FromStats_FrameCount                     : 640451
    FromStats_StreamSize                     : 1288587412

    Text #1
    ID                                       : 4
    Format                                   : PGS
    Muxing mode                              : zlib
    Codec ID                                 : S_HDMV/PGS
    Codec ID/Info                            : Picture based subtitle format used on BDs/HD-DVDs
    Language                                 : English
    Default                                  : No
    Forced                                   : No
    Statistics Tags Issue                    : mkvmerge v15.0.0 ('Duel with the Devil') 64-bit 2018-02-09 03:54:44 / mkvmerge v15.0.0 ('Duel with the Devil') 64-bit 2018-02-09 03:54:44 / UTC 2018-01-25T19:57:51Z
    FromStats_BitRate                        : 49968
    FromStats_Duration                       : 01:53:45.758000000
    FromStats_FrameCount                     : 4295
    FromStats_StreamSize                     : 42634201

    Text #2
    ID                                       : 5
    Format                                   : PGS
    Muxing mode                              : zlib
    Codec ID                                 : S_HDMV/PGS
    Codec ID/Info                            : Picture based subtitle format used on BDs/HD-DVDs
    Language                                 : Spanish
    Default                                  : No
    Forced                                   : No
    Statistics Tags Issue                    : mkvmerge v15.0.0 ('Duel with the Devil') 64-bit 2018-02-09 03:54:44 / mkvmerge v15.0.0 ('Duel with the Devil') 64-bit 2018-02-09 03:54:44 / UTC 2018-01-25T19:57:51Z
    FromStats_BitRate                        : 36360
    FromStats_Duration                       : 01:52:48.784000000
    FromStats_FrameCount                     : 3714
    FromStats_StreamSize                     : 30764858

    Menu
    00:00:00.000                             : :Chapter 1
    00:04:48.038                             : :Chapter 2
    00:08:58.288                             : :Chapter 3
    00:14:26.240                             : :Chapter 4
    00:18:52.173                             : :Chapter 5
    00:23:37.625                             : :Chapter 6
    00:27:29.148                             : :Chapter 7
    00:32:01.628                             : :Chapter 8
    00:40:35.850                             : :Chapter 9
    00:45:55.127                             : :Chapter 10
    00:52:51.335                             : :Chapter 11
    00:59:54.758                             : :Chapter 12
    01:06:20.560                             : :Chapter 13
    01:10:36.023                             : :Chapter 14
    01:14:37.598                             : :Chapter 15
    01:23:35.093                             : :Chapter 16
    01:28:30.305                             : :Chapter 17
    01:36:36.457                             : :Chapter 18
    01:43:10.476                             : :Chapter 19
    01:49:14.339                             : :Chapter 20

  • Peso: 12.3 GiB

Sinopsis

Un grupo de viejos amigos vuelven a reunirse. Jim y Michelle siguen felizmente casados, aunque hay una vecina que se ha enamorado de él. Además, la cinta sexual con Nadia se ha convertido en uno de los videos más vistos de Youtube. Por su parte, Oz vive en una mansión de Malibú, pero su novia parece sólo interesada por su dinero. Mientras tanto, la vida de Stifler sigue siendo un desastre. Heather sale con un cirujano que intenta parecer más joven, y Finch, que ha viajado por el mundo, intenta ligar con Trish, una camarera amiga de Michelle.

Ficha técnica

Video trailer de la película

Enlaces de descarga

Rip de Bluray

Descargar American Pie: El reencuentro (2012) [UNRATED] Full 1080p Latino




Aportes de DPeliculasHDmega la pass es:dpeliculashdmega.org Aportes de CinemaniaHD la pass es:cinemaniahdd.com
Guardado en : Comedia , FULL 1080p Plateadas

Películas relacionadas

  • Gun shy (2017) 1080p Latino

    2017
    Gun shy (2017) 1080p Latino

    0.0 1h 31m 2017

    Basada en la novela homónima de Mark Haskell Smith. Turk Henry es una antigua estrella de rock con sobrepeso...

    Director: Simon West

    Género: Acción

    Actores: Sebastián Apiolaza

  • Maze Runner prueba de fuego (2015) Full 1080p Latino

    2015
    Maze Runner prueba de fuego (2015) Full 1080p Latino

    5.0 2 h 11 min 2015

    En este nuevo capítulo de la trepidante saga "El Corredor del Laberinto", Thomas (Dylan O'Brien) y el...

    Director: Wes Ball

    Género: Acción

    Actores: Thomas Brodie-Sangster

  • Maze Runner correr o morir (2014) Full 1080p Latino

    2014
    Maze Runner correr o morir (2014) Full 1080p Latino

    5.0 1 h 53 min 2014

    Thomas abre los ojos y se da cuenta que está en un ascensor. Lo extraño es que no recuerda nada, ni...

    Director: Wes Ball

    Género: Acción

    Actores: Will Poulter

  • Se dice de mí (2010) Full 1080p Latino

    2010
    Se dice de mí (2010) Full 1080p Latino

    5.0 1 h 32 min 2010

    El guión, obra del dramaturgo Bert V. Royal, es una versión moderna y en clave estudiantil de “La...

    Director: Will Sandoval

    Género: Comedia

    Actores: Zack Kennedy

  • Rebeldes con causa (2007) Full 1080p Latino

    2007
    Rebeldes con causa (2007) Full 1080p Latino

    5.0 1h 39m 2007

    Cuatro amigos de mediana edad (Travolta, Allen, Lawrence y H. Macy), entusiastas de las motos, deciden...

    Director: Walt Becker

    Género: Acción

    Actores: William H. Macy

Comentarios 3
  • Jose - 14 febrero, 2018

    Subiran American Pie 4, 5, 6 y 7 en esta calidad?

    • Dracarys - 14 febrero, 2018

      si

      • Jose - 14 febrero, 2018

        Estupendo. Gracias…