Amor ciego (2001) Full 1080p Latino

795 vistas
1 estrella2 estrellas3 estrellas4 estrellas5 estrellas (1 votos, promedio: 5,00 de 5)
Cargando…

Información de Amor ciego (2001) Full 1080p Latino

Datos de la película

  • Calidad: Full 1080p
  • Audio: Español Latino AC3 5.1 BLURAY - Ingles DTS 5.1 BLURAY
  • Subtitulos: Español Latino PGS - Ingles PGS
  • Resolución: 1920x1080p
  • Formato: MKV
  • Codec: H.264
  • Encoder: Dracarys
  • Mediainfo: Clic para Mostrar Datos Ver
  • Format                                   : Matroska
    Format version                           : Version 4 / Version 2
    File size                                : 11.9 GiB
    Duration                                 : 1 h 53 min
    Overall bit rate                         : 15.0 Mb/s
    Movie name                               : CinemaniaHDD.com
    Encoded date                             : UTC 2018-04-04 01:15:06 / UTC 2018-04-03T03:08:54Z
    Writing application                      : mkvmerge v15.0.0 ('Duel with the Devil') 64-bit
    Writing library                          : libebml v1.3.5 + libmatroska v1.4.5 / Lavf57.7.2

    Video
    ID                                       : 1
    Format                                   : AVC
    Format/Info                              : Advanced Video Codec
    Format profile                           : High@L4.1
    Format settings                          : CABAC / 4 Ref Frames
    Format settings, CABAC                   : Yes
    Format settings, RefFrames               : 4 frames
    Codec ID                                 : V_MPEG4/ISO/AVC
    Duration                                 : 1 h 53 min
    Bit rate                                 : 12.8 Mb/s
    Width                                    : 1 920 pixels
    Height                                   : 1 080 pixels
    Display aspect ratio                     : 16:9
    Frame rate mode                          : Constant
    Frame rate                               : 23.976 (24000/1001) FPS
    Color space                              : YUV
    Chroma subsampling                       : 4:2:0
    Bit depth                                : 8 bits
    Scan type                                : Progressive
    Bits/(Pixel*Frame)                       : 0.257
    Stream size                              : 10.1 GiB (85%)
    Title                                    : Amor ciego (2001) Full 1080p Latino
    Writing library                          : x264 core 148 r2708 86b7198
    Encoding settings                        : cabac=1 / ref=4 / deblock=1:0:0 / analyse=0x3:0x133 / me=esa / subme=9 / psy=1 / psy_rd=1.00:0.00 / mixed_ref=1 / me_range=16 / chroma_me=1 / trellis=2 / 8x8dct=1 / cqm=0 / deadzone=21,11 / fast_pskip=1 / chroma_qp_offset=-2 / threads=34 / lookahead_threads=2 / sliced_threads=0 / nr=0 / decimate=1 / interlaced=0 / bluray_compat=0 / constrained_intra=0 / bframes=3 / b_pyramid=2 / b_adapt=2 / b_bias=0 / direct=3 / weightb=1 / open_gop=0 / weightp=2 / keyint=240 / keyint_min=24 / scenecut=40 / intra_refresh=0 / rc_lookahead=60 / rc=crf / mbtree=1 / crf=20.0 / qcomp=0.60 / qpmin=0 / qpmax=69 / qpstep=4 / vbv_maxrate=62500 / vbv_bufsize=78125 / crf_max=0.0 / nal_hrd=none / filler=0 / ip_ratio=1.40 / aq=1:1.00
    Language                                 : English
    Default                                  : Yes
    Forced                                   : No
    Color range                              : Limited
    Color primaries                          : BT.709
    Transfer characteristics                 : BT.709
    Matrix coefficients                      : BT.709
    Statistics Tags Issue                    : mkvmerge v15.0.0 ('Duel with the Devil') 64-bit 2018-04-04 01:15:06 / mkvmerge v15.0.0 ('Duel with the Devil') 64-bit 2018-04-04 01:15:06 / UTC 2018-04-03T03:08:54Z
    FromStats_BitRate                        : 13035480
    FromStats_Duration                       : 01:53:43.859000000
    FromStats_FrameCount                     : 163609
    FromStats_StreamSize                     : 11119035000

    Audio #1
    ID                                       : 2
    Format                                   : AC-3
    Format/Info                              : Audio Coding 3
    Format settings, Endianness              : Big
    Codec ID                                 : A_AC3
    Duration                                 : 1 h 53 min
    Bit rate mode                            : Constant
    Bit rate                                 : 448 kb/s
    Channel(s)                               : 6 channels
    Channel positions                        : Front: L C R, Side: L R, LFE
    Sampling rate                            : 48.0 kHz
    Frame rate                               : 31.250 FPS (1536 SPF)
    Bit depth                                : 16 bits
    Compression mode                         : Lossy
    Stream size                              : 364 MiB (3%)
    Language                                 : Spanish
    Service kind                             : Complete Main
    Default                                  : Yes
    Forced                                   : No
    Statistics Tags Issue                    : mkvmerge v15.0.0 ('Duel with the Devil') 64-bit 2018-04-04 01:15:06 / mkvmerge v15.0.0 ('Duel with the Devil') 64-bit 2018-04-04 01:15:06 / UTC 2018-04-03T03:08:54Z
    FromStats_BitRate                        : 448000
    FromStats_Duration                       : 01:53:43.904000000
    FromStats_FrameCount                     : 213247
    FromStats_StreamSize                     : 382138624

    Audio #2
    ID                                       : 3
    Format                                   : DTS
    Format/Info                              : Digital Theater Systems
    Mode                                     : 16
    Format settings, Endianness              : Big
    Codec ID                                 : A_DTS
    Duration                                 : 1 h 53 min
    Bit rate mode                            : Constant
    Bit rate                                 : 1 509 kb/s
    Channel(s)                               : 6 channels
    Channel positions                        : Front: L C R, Side: L R, LFE
    Sampling rate                            : 48.0 kHz
    Frame rate                               : 93.750 FPS (512 SPF)
    Bit depth                                : 24 bits
    Compression mode                         : Lossy
    Stream size                              : 1.20 GiB (10%)
    Language                                 : English
    Default                                  : No
    Forced                                   : No
    Statistics Tags Issue                    : mkvmerge v15.0.0 ('Duel with the Devil') 64-bit 2018-04-04 01:15:06 / mkvmerge v15.0.0 ('Duel with the Devil') 64-bit 2018-04-04 01:15:06 / UTC 2018-04-03T03:08:54Z
    FromStats_BitRate                        : 1508999
    FromStats_Duration                       : 01:53:43.894000000
    FromStats_FrameCount                     : 639740
    FromStats_StreamSize                     : 1287156880

    Text #1
    ID                                       : 4
    Format                                   : PGS
    Muxing mode                              : zlib
    Codec ID                                 : S_HDMV/PGS
    Codec ID/Info                            : Picture based subtitle format used on BDs/HD-DVDs
    Language                                 : English
    Default                                  : No
    Forced                                   : No
    Statistics Tags Issue                    : mkvmerge v15.0.0 ('Duel with the Devil') 64-bit 2018-04-04 01:15:06 / mkvmerge v15.0.0 ('Duel with the Devil') 64-bit 2018-04-04 01:15:06 / UTC 2018-04-03T03:08:54Z
    FromStats_BitRate                        : 51466
    FromStats_Duration                       : 01:52:54.934000000
    FromStats_FrameCount                     : 3922
    FromStats_StreamSize                     : 43584945

    Text #2
    ID                                       : 5
    Format                                   : PGS
    Muxing mode                              : zlib
    Codec ID                                 : S_HDMV/PGS
    Codec ID/Info                            : Picture based subtitle format used on BDs/HD-DVDs
    Language                                 : Spanish
    Default                                  : No
    Forced                                   : No
    Statistics Tags Issue                    : mkvmerge v15.0.0 ('Duel with the Devil') 64-bit 2018-04-04 01:15:06 / mkvmerge v15.0.0 ('Duel with the Devil') 64-bit 2018-04-04 01:15:06 / UTC 2018-04-03T03:08:54Z
    FromStats_BitRate                        : 36762
    FromStats_Duration                       : 01:52:53.266000000
    FromStats_FrameCount                     : 2570
    FromStats_StreamSize                     : 31125310

    Menu
    00:00:00.000                             : :Chapter 1
    00:04:21.553                             : :Chapter 2
    00:06:33.101                             : :Chapter 3
    00:08:44.190                             : :Chapter 4
    00:10:11.820                             : :Chapter 5
    00:12:08.686                             : :Chapter 6
    00:17:32.176                             : :Chapter 7
    00:21:18.778                             : :Chapter 8
    00:27:11.255                             : :Chapter 9
    00:31:58.083                             : :Chapter 10
    00:35:05.145                             : :Chapter 11
    00:38:18.546                             : :Chapter 12
    00:41:55.596                             : :Chapter 13
    00:44:51.063                             : :Chapter 14
    00:48:30.658                             : :Chapter 15
    00:53:33.711                             : :Chapter 16
    00:56:12.828                             : :Chapter 17
    01:01:26.600                             : :Chapter 18
    01:04:30.116                             : :Chapter 19
    01:06:55.678                             : :Chapter 20
    01:10:14.669                             : :Chapter 21
    01:16:46.685                             : :Chapter 22
    01:20:02.423                             : :Chapter 23
    01:23:42.476                             : :Chapter 24
    01:28:33.517                             : :Chapter 25
    01:32:24.372                             : :Chapter 26
    01:39:22.748                             : :Chapter 27
    01:45:47.049                             : :Chapter 28

  • Peso: 11.9 GiB

Sinopsis

Hal Larsen es un muchacho superficial que sólo encuentra bellas a las chicas que parecen supermodelos. Sin embargo, después de ser sometido a una sesión de hipnosis por un conocido gurú, sólo será capaz de ver la belleza interior de las mujeres. Rosemary, una chica obesa y bondadosa, se cruzará en su camino y Hal se enamorará locamente de ella.

Ficha técnica

Video trailer de la película

Enlaces de descarga

Rip de Bluray

Descargar Amor ciego (2001) Full 1080p Latino




Aportes de DPeliculasHDmega la pass es:dpeliculashdmega.org Aportes de CinemaniaHD la pass es:cinemaniahdd.com

Películas relacionadas

  • Niños del hombre (2006) Full 1080p Latino

    2006
    Niños del hombre (2006) Full 1080p Latino

    0.0 1 h 49 min 2006

    Año 2027: el ser humano está al borde de la extinción: los hombres han perdido la capacidad de procrear...

    Director: Terry Needham

    Género: Acción

    Actores: Yolanda Vazquez

  • Para atrapar al ladrón (1955) Full 1080p Latino

    1955
    Para atrapar al ladrón (1955) Full 1080p Latino

    0.0 1h 46m 1955

    A pesar de que John Robie "El Gato" (Cary Grant) es un ladrón de joyas reformado, se convierte en el...

    Director: Alfred Hitchcock

    Género: Crimen

    Actores: William 'Wee Willie' Davis

  • Si decido quedarme (2014) Full 1080p Latino

    2014
    Si decido quedarme (2014) Full 1080p Latino

    5.0 1 h 46 min 2014

    Mia es una joven de 17 años que parece tenerlo todo en la vida: una famila adorable, un novio que la...

    Director: R.J. Cutler

    Género: Drama

    Actores: William C. Vaughan

  • Dude (2018) NF 1080p Latino

    2018
    Dude (2018) NF 1080p Latino

    5.0 1h 30m 2018

    Cuatro mejores amigas se tienen que enfrentar a su nueva vida. Las dos últimas semanas de instituto...

    Director: Olivia Milch

    Género: Comedia

    Actores: Sydney Lucas

Comentarios 1
  • Rxdrigx17 - 04 abril, 2018

    Muy buena esta película, Muchas gracias crack 😉