Apuesta maestra (2017) Full 1080p Latino

1.282 vistas
1 estrella2 estrellas3 estrellas4 estrellas5 estrellas (1 votos, promedio: 5,00 de 5)
Cargando…

Información de Apuesta maestra (2017) Full 1080p Latino

Datos de la película

  • Calidad: Full 1080p
  • Audio: Español Latino AC3 5.1 BLURAY - Ingles DTS 5.1 BLURAY
  • Subtitulos: Español Latino PGS - Ingles PGS
  • Resolución: 1920x1080p
  • Formato: MKV
  • Codec: H.264
  • Encoder: Dracarys
  • Mediainfo: Clic para Mostrar Datos Ver
  • Format                                   : Matroska
    Format version                           : Version 4 / Version 2
    File size                                : 4.63 GiB
    Duration                                 : 2 h 20 min
    Overall bit rate                         : 4 703 kb/s
    Movie name                               : CinemaniaHDD.com
    Encoded date                             : UTC 2018-04-05 02:18:53 / UTC 2018-04-02T04:42:31Z
    Writing application                      : mkvmerge v15.0.0 ('Duel with the Devil') 64-bit
    Writing library                          : libebml v1.3.5 + libmatroska v1.4.5 / Lavf57.7.2

    Video
    ID                                       : 1
    Format                                   : AVC
    Format/Info                              : Advanced Video Codec
    Format profile                           : High@L4.1
    Format settings                          : CABAC / 4 Ref Frames
    Format settings, CABAC                   : Yes
    Format settings, RefFrames               : 4 frames
    Codec ID                                 : V_MPEG4/ISO/AVC
    Duration                                 : 2 h 20 min
    Bit rate                                 : 2 333 kb/s
    Width                                    : 1 920 pixels
    Height                                   : 1 080 pixels
    Display aspect ratio                     : 16:9
    Frame rate mode                          : Constant
    Frame rate                               : 23.976 (24000/1001) FPS
    Color space                              : YUV
    Chroma subsampling                       : 4:2:0
    Bit depth                                : 8 bits
    Scan type                                : Progressive
    Bits/(Pixel*Frame)                       : 0.047
    Stream size                              : 2.30 GiB (50%)
    Title                                    : Apuesta maestra (2017) Full 1080p Latino
    Writing library                          : x264 core 148 r2708 86b7198
    Encoding settings                        : cabac=1 / ref=4 / deblock=1:0:0 / analyse=0x3:0x133 / me=esa / subme=9 / psy=1 / psy_rd=1.00:0.00 / mixed_ref=1 / me_range=16 / chroma_me=1 / trellis=2 / 8x8dct=1 / cqm=0 / deadzone=21,11 / fast_pskip=1 / chroma_qp_offset=-2 / threads=34 / lookahead_threads=2 / sliced_threads=0 / nr=0 / decimate=1 / interlaced=0 / bluray_compat=0 / constrained_intra=0 / bframes=3 / b_pyramid=2 / b_adapt=2 / b_bias=0 / direct=3 / weightb=1 / open_gop=0 / weightp=2 / keyint=240 / keyint_min=24 / scenecut=40 / intra_refresh=0 / rc_lookahead=60 / rc=crf / mbtree=1 / crf=20.0 / qcomp=0.60 / qpmin=0 / qpmax=69 / qpstep=4 / vbv_maxrate=62500 / vbv_bufsize=78125 / crf_max=0.0 / nal_hrd=none / filler=0 / ip_ratio=1.40 / aq=1:1.00
    Language                                 : English
    Default                                  : Yes
    Forced                                   : No
    Color range                              : Limited
    Color primaries                          : BT.709
    Transfer characteristics                 : BT.709
    Matrix coefficients                      : BT.709
    Statistics Tags Issue                    : mkvmerge v15.0.0 ('Duel with the Devil') 64-bit 2018-04-05 02:18:53 / mkvmerge v15.0.0 ('Duel with the Devil') 64-bit 2018-04-05 02:18:53 / UTC 2018-04-02T04:42:31Z
    FromStats_BitRate                        : 2383213
    FromStats_Duration                       : 02:20:57.658000000
    FromStats_FrameCount                     : 202781
    FromStats_StreamSize                     : 2519550172

    Audio #1
    ID                                       : 2
    Format                                   : DTS
    Format/Info                              : Digital Theater Systems
    Mode                                     : 16
    Format settings, Endianness              : Big
    Codec ID                                 : A_DTS
    Duration                                 : 2 h 20 min
    Bit rate mode                            : Constant
    Bit rate                                 : 768 kb/s
    Channel(s)                               : 6 channels
    Channel positions                        : Front: L C R, Side: L R, LFE
    Sampling rate                            : 48.0 kHz
    Frame rate                               : 93.750 FPS (512 SPF)
    Bit depth                                : 24 bits
    Compression mode                         : Lossy
    Stream size                              : 774 MiB (16%)
    Language                                 : Spanish
    Default                                  : Yes
    Forced                                   : No
    Statistics Tags Issue                    : mkvmerge v15.0.0 ('Duel with the Devil') 64-bit 2018-04-05 02:18:53 / mkvmerge v15.0.0 ('Duel with the Devil') 64-bit 2018-04-05 02:18:53 / UTC 2018-04-02T04:42:31Z
    FromStats_BitRate                        : 768000
    FromStats_Duration                       : 02:20:57.664000000
    FromStats_FrameCount                     : 792906
    FromStats_StreamSize                     : 811935744

    Audio #2
    ID                                       : 3
    Format                                   : DTS
    Format/Info                              : Digital Theater Systems
    Mode                                     : 16
    Format settings, Endianness              : Big
    Codec ID                                 : A_DTS
    Duration                                 : 2 h 20 min
    Bit rate mode                            : Constant
    Bit rate                                 : 1 509 kb/s
    Channel(s)                               : 6 channels
    Channel positions                        : Front: L C R, Side: L R, LFE
    Sampling rate                            : 48.0 kHz
    Frame rate                               : 93.750 FPS (512 SPF)
    Bit depth                                : 24 bits
    Compression mode                         : Lossy
    Stream size                              : 1.49 GiB (32%)
    Language                                 : English
    Default                                  : No
    Forced                                   : No
    Statistics Tags Issue                    : mkvmerge v15.0.0 ('Duel with the Devil') 64-bit 2018-04-05 02:18:53 / mkvmerge v15.0.0 ('Duel with the Devil') 64-bit 2018-04-05 02:18:53 / UTC 2018-04-02T04:42:31Z
    FromStats_BitRate                        : 1509000
    FromStats_Duration                       : 02:20:57.664000000
    FromStats_FrameCount                     : 792906
    FromStats_StreamSize                     : 1595326872

    Text #1
    ID                                       : 4
    Format                                   : PGS
    Muxing mode                              : zlib
    Codec ID                                 : S_HDMV/PGS
    Codec ID/Info                            : Picture based subtitle format used on BDs/HD-DVDs
    Language                                 : English
    Default                                  : No
    Forced                                   : No
    Statistics Tags Issue                    : mkvmerge v15.0.0 ('Duel with the Devil') 64-bit 2018-04-05 02:18:53 / mkvmerge v15.0.0 ('Duel with the Devil') 64-bit 2018-04-05 02:18:53 / UTC 2018-04-02T04:42:31Z
    FromStats_BitRate                        : 75751
    FromStats_Duration                       : 02:12:15.386000000
    FromStats_FrameCount                     : 6643
    FromStats_StreamSize                     : 75139452

    Text #2
    ID                                       : 5
    Format                                   : PGS
    Muxing mode                              : zlib
    Codec ID                                 : S_HDMV/PGS
    Codec ID/Info                            : Picture based subtitle format used on BDs/HD-DVDs
    Title                                    : Forzados
    Language                                 : Spanish
    Default                                  : Yes
    Forced                                   : Yes
    Statistics Tags Issue                    : mkvmerge v15.0.0 ('Duel with the Devil') 64-bit 2018-04-05 02:18:53 / mkvmerge v15.0.0 ('Duel with the Devil') 64-bit 2018-04-05 02:18:53 / UTC 2018-04-02T04:42:31Z
    FromStats_BitRate                        : 308
    FromStats_Duration                       : 02:19:05.545000000
    FromStats_FrameCount                     : 38
    FromStats_StreamSize                     : 321676

    Text #3
    ID                                       : 6
    Format                                   : PGS
    Muxing mode                              : zlib
    Codec ID                                 : S_HDMV/PGS
    Codec ID/Info                            : Picture based subtitle format used on BDs/HD-DVDs
    Language                                 : Spanish
    Default                                  : No
    Forced                                   : No
    Statistics Tags Issue                    : mkvmerge v15.0.0 ('Duel with the Devil') 64-bit 2018-04-05 02:18:53 / mkvmerge v15.0.0 ('Duel with the Devil') 64-bit 2018-04-05 02:18:53 / UTC 2018-04-02T04:42:31Z
    FromStats_BitRate                        : 62701
    FromStats_Duration                       : 02:12:04.416000000
    FromStats_FrameCount                     : 5308
    FromStats_StreamSize                     : 62108782

    Menu
    00:00:00.000                             : :Chapter 1
    00:05:54.479                             : :Chapter 2
    00:09:55.053                             : :Chapter 3
    00:16:53.137                             : :Chapter 4
    00:24:03.108                             : :Chapter 5
    00:29:16.505                             : :Chapter 6
    00:39:01.589                             : :Chapter 7
    00:48:11.347                             : :Chapter 8
    00:54:00.279                             : :Chapter 9
    01:04:07.260                             : :Chapter 10
    01:11:10.391                             : :Chapter 11
    01:18:03.679                             : :Chapter 12
    01:23:10.986                             : :Chapter 13
    01:29:09.928                             : :Chapter 14
    01:34:19.904                             : :Chapter 15
    01:44:30.431                             : :Chapter 16
    01:53:43.275                             : :Chapter 17
    02:01:38.249                             : :Chapter 18
    02:07:20.466                             : :Chapter 19
    02:13:24.997                             : :Chapter 20

  • Peso: 4.63 GiB

Sinopsis

La enigmática y brillante Molly Bloom (Jessica Chastain), después de abandonar el esquí profesional, decide mudarse a Los Ángeles con la intención de conseguir un trabajo como camarera y disfrutar del cálido clima durante un tiempo. Por un cúmulo de casualidades, además de sus habilidades empresariales sin explotar, Bloom empezó a organizar las más exclusivas apuestas de póker clandestinas en las que participaban estrellas de Hollywood, deportistas, empresarios y la mafia rusa. Durante una década fue la impulsora de este imperio de partidas de póker, hasta que el FBI la investigó por sus conexiones con el crimen. El prestigioso abogado Charlie Jaffey (Idris Elba) será su única posibilidad para librarse de la cárcel.

Ficha técnica

Video trailer de la película

Enlaces de descarga

Rip de Bluray

Descargar Apuesta maestra (2017) Full 1080p Latino




Aportes de DPeliculasHDmega la pass es:dpeliculashdmega.org Aportes de CinemaniaHD la pass es:cinemaniahdd.com
Guardado en : Crimen , Drama , FULL 1080p Plateadas

Películas relacionadas

  • Hangman (2017) 1080p Latino

    2017
    Hangman (2017) 1080p Latino

    0.0 2h 0m 2017

    Archer es un detective de homicidios (Al Pacino) que se une a un detective de crímenes comunes (Urban)...

    Director: Marc Dahlstrom

    Género: Crimen

    Actores: Steve Coulter

  • A Ghost Story (2017) 1080p Latino

    2017
    A Ghost Story (2017) 1080p Latino

    5.0 1h 27m 2017

    Un hombre recientemente fallecido regresa a su casa como un fantasma vestido con una sábana blanca para...

    Director: David Lowery

    Género: Drama

    Actores: Yasmina Gutierrez

  • Maze Runner prueba de fuego (2015) Full 1080p Latino

    2015
    Maze Runner prueba de fuego (2015) Full 1080p Latino

    5.0 2 h 11 min 2015

    En este nuevo capítulo de la trepidante saga "El Corredor del Laberinto", Thomas (Dylan O'Brien) y el...

    Director: Wes Ball

    Género: Acción

    Actores: Thomas Brodie-Sangster

  • Maze Runner correr o morir (2014) Full 1080p Latino

    2014
    Maze Runner correr o morir (2014) Full 1080p Latino

    5.0 1 h 53 min 2014

    Thomas abre los ojos y se da cuenta que está en un ascensor. Lo extraño es que no recuerda nada, ni...

    Director: Wes Ball

    Género: Acción

    Actores: Will Poulter

  • Se dice de mí (2010) Full 1080p Latino

    2010
    Se dice de mí (2010) Full 1080p Latino

    5.0 1 h 32 min 2010

    El guión, obra del dramaturgo Bert V. Royal, es una versión moderna y en clave estudiantil de “La...

    Director: Will Sandoval

    Género: Comedia

    Actores: Zack Kennedy

Comentarios 4
  • Adan - 06 abril, 2018

    Hola, acabo de descargar la pelicula pero me pide contraseña el winrar.
    Soy nuevo en esta pagina gracias ….!!!

    • dpelis - 07 abril, 2018

      cinemaniahdd.com

  • Cr. Jose - 05 abril, 2018

    Buen día amigos de CinemaniaHD gracias por todos sus aportes, una pregunta porque las películas con caratula plateada no trae subtitulo forzado si la negra si trae, estaría bien si se la pusieran también, por su atención gracias

    • Dracarys - 05 abril, 2018

      Puedes Revisar en la mediainfo y te darás cuenta que si tiene subtitulos Forzados…