Asesinato en el Expreso de Oriente (2017) Full 1080p Latino

1.791 vistas
1 estrella2 estrellas3 estrellas4 estrellas5 estrellas (Ninguna valoración todavía)
Cargando…

Información de Asesinato en el Expreso de Oriente (2017) Full 1080p Latino

Datos de la película

  • Calidad: Full 1080p
  • Audio: Español Latino AC3 5.1 BLURAY - Ingles DTS 5.1 BLURAY
  • Subtitulos: Español Latino PGS - Ingles PGS
  • Resolución: 1920X1080p
  • Formato: MKV
  • Codec: H.264
  • Encoder: Dracarys
  • Mediainfo: Clic para Mostrar Datos Ver
  • Format                                   : Matroska
    Format version                           : Version 4 / Version 2
    File size                                : 4.67 GiB
    Duration                                 : 1 h 53 min
    Overall bit rate                         : 5 864 kb/s
    Movie name                               : CinemaniaHDD.com
    Encoded date                             : UTC 2018-02-14 04:39:00 / UTC 2018-02-13T17:41:29Z
    Writing application                      : mkvmerge v15.0.0 ('Duel with the Devil') 64-bit
    Writing library                          : libebml v1.3.5 + libmatroska v1.4.5 / Lavf57.7.2

    Video
    ID                                       : 1
    Format                                   : AVC
    Format/Info                              : Advanced Video Codec
    Format profile                           : High@L4.1
    Format settings                          : CABAC / 4 Ref Frames
    Format settings, CABAC                   : Yes
    Format settings, RefFrames               : 4 frames
    Codec ID                                 : V_MPEG4/ISO/AVC
    Duration                                 : 1 h 53 min
    Bit rate                                 : 3 790 kb/s
    Width                                    : 1 920 pixels
    Height                                   : 1 080 pixels
    Display aspect ratio                     : 16:9
    Frame rate mode                          : Constant
    Frame rate                               : 23.976 (24000/1001) FPS
    Color space                              : YUV
    Chroma subsampling                       : 4:2:0
    Bit depth                                : 8 bits
    Scan type                                : Progressive
    Bits/(Pixel*Frame)                       : 0.076
    Stream size                              : 3.02 GiB (65%)
    Title                                    : Asesinato en el Expreso de Oriente (2017) Full 1080p Latino
    Writing library                          : x264 core 148 r2708 86b7198
    Encoding settings                        : cabac=1 / ref=4 / deblock=1:0:0 / analyse=0x3:0x133 / me=esa / subme=10 / psy=1 / psy_rd=1.00:0.00 / mixed_ref=1 / me_range=24 / chroma_me=1 / trellis=2 / 8x8dct=1 / cqm=0 / deadzone=21,11 / fast_pskip=1 / chroma_qp_offset=-2 / threads=34 / lookahead_threads=5 / sliced_threads=0 / nr=0 / decimate=1 / interlaced=0 / bluray_compat=0 / constrained_intra=0 / bframes=8 / b_pyramid=2 / b_adapt=2 / b_bias=0 / direct=3 / weightb=1 / open_gop=0 / weightp=2 / keyint=240 / keyint_min=24 / scenecut=40 / intra_refresh=0 / rc_lookahead=60 / rc=crf / mbtree=1 / crf=20.0 / qcomp=0.60 / qpmin=0 / qpmax=69 / qpstep=4 / vbv_maxrate=62500 / vbv_bufsize=78125 / crf_max=0.0 / nal_hrd=none / filler=0 / ip_ratio=1.40 / aq=1:1.00
    Language                                 : English
    Default                                  : Yes
    Forced                                   : No
    Color range                              : Limited
    Color primaries                          : BT.709
    Transfer characteristics                 : BT.709
    Matrix coefficients                      : BT.709
    Statistics Tags Issue                    : mkvmerge v15.0.0 ('Duel with the Devil') 64-bit 2018-02-14 04:39:00 / mkvmerge v15.0.0 ('Duel with the Devil') 64-bit 2018-02-14 04:39:00 / UTC 2018-02-13T17:41:29Z
    FromStats_BitRate                        : 3891792
    FromStats_Duration                       : 01:53:55.954000000
    FromStats_FrameCount                     : 163899
    FromStats_StreamSize                     : 3325514513

    Audio #1
    ID                                       : 2
    Format                                   : AC-3
    Format/Info                              : Audio Coding 3
    Format settings, Endianness              : Big
    Codec ID                                 : A_AC3
    Duration                                 : 1 h 53 min
    Bit rate mode                            : Constant
    Bit rate                                 : 448 kb/s
    Channel(s)                               : 6 channels
    Channel positions                        : Front: L C R, Side: L R, LFE
    Sampling rate                            : 48.0 kHz
    Frame rate                               : 31.250 FPS (1536 SPF)
    Bit depth                                : 16 bits
    Compression mode                         : Lossy
    Stream size                              : 365 MiB (8%)
    Language                                 : Spanish
    Service kind                             : Complete Main
    Default                                  : Yes
    Forced                                   : No
    Statistics Tags Issue                    : mkvmerge v15.0.0 ('Duel with the Devil') 64-bit 2018-02-14 04:39:00 / mkvmerge v15.0.0 ('Duel with the Devil') 64-bit 2018-02-14 04:39:00 / UTC 2018-02-13T17:41:29Z
    FromStats_BitRate                        : 448000
    FromStats_Duration                       : 01:53:55.968000000
    FromStats_FrameCount                     : 213624
    FromStats_StreamSize                     : 382814208

    Audio #2
    ID                                       : 3
    Format                                   : DTS
    Format/Info                              : Digital Theater Systems
    Format profile                           : ES Matrix / Core
    Mode                                     : 16
    Format settings, Endianness              : Big
    Codec ID                                 : A_DTS
    Duration                                 : 1 h 53 min
    Bit rate mode                            : Constant
    Bit rate                                 : 1 509 kb/s
    Channel(s)                               : 7 channels / 6 channels
    Channel positions                        : Front: L C R, Side: L R, Back: C, LFE / Front: L C R, Side: L R, LFE
    Sampling rate                            : 48.0 kHz
    Frame rate                               : 93.750 FPS (512 SPF)
    Bit depth                                : 24 bits
    Compression mode                         : Lossy
    Stream size                              : 1.20 GiB (26%)
    Language                                 : English
    Default                                  : No
    Forced                                   : No
    Statistics Tags Issue                    : mkvmerge v15.0.0 ('Duel with the Devil') 64-bit 2018-02-14 04:39:00 / mkvmerge v15.0.0 ('Duel with the Devil') 64-bit 2018-02-14 04:39:00 / UTC 2018-02-13T17:41:29Z
    FromStats_BitRate                        : 1508999
    FromStats_Duration                       : 01:53:55.958000000
    FromStats_FrameCount                     : 640871
    FromStats_StreamSize                     : 1289432452

    Text #1
    ID                                       : 4
    Format                                   : PGS
    Muxing mode                              : zlib
    Codec ID                                 : S_HDMV/PGS
    Codec ID/Info                            : Picture based subtitle format used on BDs/HD-DVDs
    Language                                 : Spanish
    Default                                  : No
    Forced                                   : No
    Statistics Tags Issue                    : mkvmerge v15.0.0 ('Duel with the Devil') 64-bit 2018-02-14 04:39:00 / mkvmerge v15.0.0 ('Duel with the Devil') 64-bit 2018-02-14 04:39:00 / UTC 2018-02-13T17:41:29Z
    FromStats_BitRate                        : 41878
    FromStats_Duration                       : 01:53:06.530000000
    FromStats_FrameCount                     : 3138
    FromStats_StreamSize                     : 35526040

    Text #2
    ID                                       : 5
    Format                                   : PGS
    Muxing mode                              : zlib
    Codec ID                                 : S_HDMV/PGS
    Codec ID/Info                            : Picture based subtitle format used on BDs/HD-DVDs
    Language                                 : English
    Default                                  : No
    Forced                                   : No
    Statistics Tags Issue                    : mkvmerge v15.0.0 ('Duel with the Devil') 64-bit 2018-02-14 04:39:00 / mkvmerge v15.0.0 ('Duel with the Devil') 64-bit 2018-02-14 04:39:00 / UTC 2018-02-13T17:41:29Z
    FromStats_BitRate                        : 296
    FromStats_Duration                       : 01:33:10.376000000
    FromStats_FrameCount                     : 50
    FromStats_StreamSize                     : 206929

    Menu
    00:00:00.000                             : :Chapter 1
    00:03:06.144                             : :Chapter 2
    00:06:42.193                             : :Chapter 3
    00:11:44.746                             : :Chapter 4
    00:18:26.188                             : :Chapter 5
    00:24:53.659                             : :Chapter 6
    00:33:14.159                             : :Chapter 7
    00:37:47.515                             : :Chapter 8
    00:43:16.511                             : :Chapter 9
    00:46:24.865                             : :Chapter 10
    00:51:23.581                             : :Chapter 11
    00:55:52.015                             : :Chapter 12
    01:00:03.183                             : :Chapter 13
    01:05:39.227                             : :Chapter 14
    01:10:40.278                             : :Chapter 15
    01:14:17.578                             : :Chapter 16
    01:18:05.055                             : :Chapter 17
    01:21:12.284                             : :Chapter 18
    01:24:39.366                             : :Chapter 19
    01:28:37.854                             : :Chapter 20
    01:32:28.376                             : :Chapter 21
    01:37:04.652                             : :Chapter 22
    01:40:30.024                             : :Chapter 23
    01:46:49.904                             : :Chapter 24

  • Peso: 4.67 GiB

Sinopsis

Durante un viaje en el legendario tren Orient Express, el detective belga Hercules Poirot investiga un asesinato cometido en el trayecto, y a resultas del cual todos los pasajeros del tren son sospechosos del mismo.

Ficha técnica

Video trailer de la película

Enlaces de descarga

Rip de Bluray

Descargar Asesinato en el Expreso de Oriente (2017) Full 1080p Latino




Aportes de DPeliculasHDmega la pass es:dpeliculashdmega.org Aportes de CinemaniaHD la pass es:cinemaniahdd.com

Películas relacionadas

  • Hangman (2017) 1080p Latino

    2017
    Hangman (2017) 1080p Latino

    0.0 2h 0m 2017

    Archer es un detective de homicidios (Al Pacino) que se une a un detective de crímenes comunes (Urban)...

    Director: Marc Dahlstrom

    Género: Crimen

    Actores: Steve Coulter

  • A Ghost Story (2017) 1080p Latino

    2017
    A Ghost Story (2017) 1080p Latino

    5.0 1h 27m 2017

    Un hombre recientemente fallecido regresa a su casa como un fantasma vestido con una sábana blanca para...

    Director: David Lowery

    Género: Drama

    Actores: Yasmina Gutierrez

  • Maze Runner prueba de fuego (2015) Full 1080p Latino

    2015
    Maze Runner prueba de fuego (2015) Full 1080p Latino

    5.0 2 h 11 min 2015

    En este nuevo capítulo de la trepidante saga "El Corredor del Laberinto", Thomas (Dylan O'Brien) y el...

    Director: Wes Ball

    Género: Acción

    Actores: Thomas Brodie-Sangster

  • Maze Runner correr o morir (2014) Full 1080p Latino

    2014
    Maze Runner correr o morir (2014) Full 1080p Latino

    5.0 1 h 53 min 2014

    Thomas abre los ojos y se da cuenta que está en un ascensor. Lo extraño es que no recuerda nada, ni...

    Director: Wes Ball

    Género: Acción

    Actores: Will Poulter

  • Se dice de mí (2010) Full 1080p Latino

    2010
    Se dice de mí (2010) Full 1080p Latino

    5.0 1 h 32 min 2010

    El guión, obra del dramaturgo Bert V. Royal, es una versión moderna y en clave estudiantil de “La...

    Director: Will Sandoval

    Género: Comedia

    Actores: Zack Kennedy

Comentarios 8
  • slash007 - 10 marzo, 2018

    Gracias,

  • Jose - 17 febrero, 2018

    Una consulta, por que se le ha bajado tanto el bitrate de las peliculas?, antiguamente tenian 8.000 mb

    • Dracarys - 22 febrero, 2018

      el programa calcula solo el bitrate. si no tiene tanto es que no necesita mas

  • jk2010 - 15 febrero, 2018

    hola gracias x el aporte les cumunico que no sale el psg de ingles… para que sepan.. gracias…

  • Matias - 14 febrero, 2018

    Por fin volvio 1fichier, me compre una premium por ustedes nada mas, saludos y gracias.

  • TorukMato - 14 febrero, 2018

    probe google en otras pagin as..y funciona bien..eso es aqui solamente…antes no pasaba…..ami me funciona bien google…claro donde mejor se consiguen las movies es aqui…porfavor puedes areglarlogracias

  • TorukMato - 14 febrero, 2018

    amigo aqui es lo mismo me deja bajar nada de google…gracias de todas formas

  • Gabriel - 14 febrero, 2018

    Excelente, Muchísimas Gracias por sus Aportes!!
    Felicitaciones, Sigan Así…