Atómica (2017) Full 1080p Latino

2.409 vistas
1 estrella2 estrellas3 estrellas4 estrellas5 estrellas (2 votos, promedio: 4,00 de 5)
Cargando…

Información de Atómica (2017) Full 1080p Latino

Datos de la película

  • Calidad: Full 1080p
  • Audio: Español Latino DTS 5.1 BLURAY - Ingles DTS 5.1 BLURAY
  • Subtitulos: Español Latino PGS - Ingles PGS
  • Resolución: 1920X1080
  • Formato: MKV
  • Codec: H.264
  • Encoder: Dpelis
  • Mediainfo: Clic para Mostrar Datos Ver
  • Format                                   : Matroska
    Format version                           : Version 4 / Version 2
    File size                                : 5.27 GiB
    Duration                                 : 1 h 54 min
    Overall bit rate                         : 6 579 kb/s
    Movie name                               : dpeliculashdmega.org
    Encoded date                             : UTC 2017-11-06 21:06:29 / UTC 2017-11-06T18:11:23Z
    Writing application                      : mkvmerge v15.0.0 ('Duel with the Devil') 64-bit
    Writing library                          : libebml v1.3.5 + libmatroska v1.4.5 / Lavf57.7.2

    Video
    ID                                       : 1
    Format                                   : AVC
    Format/Info                              : Advanced Video Codec
    Format profile                           : [email protected]
    Format settings                          : CABAC / 4 Ref Frames
    Format settings, CABAC                   : Yes
    Format settings, RefFrames               : 4 frames
    Codec ID                                 : V_MPEG4/ISO/AVC
    Duration                                 : 1 h 54 min
    Bit rate                                 : 4 171 kb/s
    Width                                    : 1 920 pixels
    Height                                   : 1 080 pixels
    Display aspect ratio                     : 16:9
    Frame rate mode                          : Constant
    Frame rate                               : 23.976 (24000/1001) FPS
    Color space                              : YUV
    Chroma subsampling                       : 4:2:0
    Bit depth                                : 8 bits
    Scan type                                : Progressive
    Bits/(Pixel*Frame)                       : 0.084
    Stream size                              : 3.34 GiB (63%)
    Title                                    : Atómica (2017) Full 1080p Latino
    Writing library                          : x264 core 148 r2708 86b7198
    Encoding settings                        : cabac=1 / ref=4 / deblock=1:0:0 / analyse=0x3:0x133 / me=esa / subme=10 / psy=1 / psy_rd=1.00:0.00 / mixed_ref=1 / me_range=24 / chroma_me=1 / trellis=2 / 8x8dct=1 / cqm=0 / deadzone=21,11 / fast_pskip=1 / chroma_qp_offset=-2 / threads=34 / lookahead_threads=5 / sliced_threads=0 / nr=0 / decimate=1 / interlaced=0 / bluray_compat=0 / constrained_intra=0 / bframes=8 / b_pyramid=2 / b_adapt=2 / b_bias=0 / direct=3 / weightb=1 / open_gop=0 / weightp=2 / keyint=240 / keyint_min=24 / scenecut=40 / intra_refresh=0 / rc_lookahead=60 / rc=crf / mbtree=1 / crf=20.0 / qcomp=0.60 / qpmin=0 / qpmax=69 / qpstep=4 / vbv_maxrate=62500 / vbv_bufsize=78125 / crf_max=0.0 / nal_hrd=none / filler=0 / ip_ratio=1.40 / aq=1:1.00
    Language                                 : English
    Default                                  : Yes
    Forced                                   : No
    Color range                              : Limited
    Color primaries                          : BT.709
    Transfer characteristics                 : BT.709
    Matrix coefficients                      : BT.709
    Statistics Tags Issue                    : mkvmerge v15.0.0 ('Duel with the Devil') 64-bit 2017-11-06 21:06:29 / mkvmerge v15.0.0 ('Duel with the Devil') 64-bit 2017-11-06 21:06:29 / UTC 2017-11-06T18:11:23Z
    FromStats_BitRate                        : 4282341
    FromStats_Duration                       : 01:54:44.294000000
    FromStats_FrameCount                     : 165058
    FromStats_StreamSize                     : 3685112104

    Audio #1
    ID                                       : 2
    Format                                   : DTS
    Format/Info                              : Digital Theater Systems
    Mode                                     : 16
    Format settings, Endianness              : Big
    Codec ID                                 : A_DTS
    Duration                                 : 1 h 54 min
    Bit rate mode                            : Constant
    Bit rate                                 : 768 kb/s
    Channel(s)                               : 6 channels
    Channel positions                        : Front: L C R, Side: L R, LFE
    Sampling rate                            : 48.0 kHz
    Frame rate                               : 93.750 FPS (512 SPF)
    Bit depth                                : 24 bits
    Compression mode                         : Lossy
    Stream size                              : 630 MiB (12%)
    Title                                    : Latino-DTS
    Language                                 : Spanish
    Default                                  : Yes
    Forced                                   : No
    Statistics Tags Issue                    : mkvmerge v15.0.0 ('Duel with the Devil') 64-bit 2017-11-06 21:06:29 / mkvmerge v15.0.0 ('Duel with the Devil') 64-bit 2017-11-06 21:06:29 / UTC 2017-11-06T18:11:23Z
    FromStats_BitRate                        : 767999
    FromStats_Duration                       : 01:54:44.299000000
    FromStats_FrameCount                     : 645403
    FromStats_StreamSize                     : 660892672

    Audio #2
    ID                                       : 3
    Format                                   : DTS
    Format/Info                              : Digital Theater Systems
    Mode                                     : 16
    Format settings, Endianness              : Big
    Codec ID                                 : A_DTS
    Duration                                 : 1 h 54 min
    Bit rate mode                            : Constant
    Bit rate                                 : 1 509 kb/s
    Channel(s)                               : 6 channels
    Channel positions                        : Front: L C R, Side: L R, LFE
    Sampling rate                            : 48.0 kHz
    Frame rate                               : 93.750 FPS (512 SPF)
    Bit depth                                : 24 bits
    Compression mode                         : Lossy
    Stream size                              : 1.21 GiB (23%)
    Title                                    : Ingles-DTS
    Language                                 : English
    Default                                  : No
    Forced                                   : No
    Statistics Tags Issue                    : mkvmerge v15.0.0 ('Duel with the Devil') 64-bit 2017-11-06 21:06:29 / mkvmerge v15.0.0 ('Duel with the Devil') 64-bit 2017-11-06 21:06:29 / UTC 2017-11-06T18:11:23Z
    FromStats_BitRate                        : 1508999
    FromStats_Duration                       : 01:54:44.299000000
    FromStats_FrameCount                     : 645403
    FromStats_StreamSize                     : 1298550836

    Text #1
    ID                                       : 4
    Format                                   : PGS
    Muxing mode                              : zlib
    Codec ID                                 : S_HDMV/PGS
    Codec ID/Info                            : Picture based subtitle format used on BDs/HD-DVDs
    Title                                    : Forzados
    Language                                 : Spanish
    Default                                  : Yes
    Forced                                   : No
    Statistics Tags Issue                    : mkvmerge v15.0.0 ('Duel with the Devil') 64-bit 2017-11-06 21:06:29 / mkvmerge v15.0.0 ('Duel with the Devil') 64-bit 2017-11-06 21:06:29 / UTC 2017-11-06T18:11:23Z
    FromStats_BitRate                        : 765
    FromStats_Duration                       : 01:53:39.312000000
    FromStats_FrameCount                     : 78
    FromStats_StreamSize                     : 652840

    Text #2
    ID                                       : 5
    Format                                   : PGS
    Muxing mode                              : zlib
    Codec ID                                 : S_HDMV/PGS
    Codec ID/Info                            : Picture based subtitle format used on BDs/HD-DVDs
    Language                                 : Spanish
    Default                                  : No
    Forced                                   : No
    Statistics Tags Issue                    : mkvmerge v15.0.0 ('Duel with the Devil') 64-bit 2017-11-06 21:06:29 / mkvmerge v15.0.0 ('Duel with the Devil') 64-bit 2017-11-06 21:06:29 / UTC 2017-11-06T18:11:23Z
    FromStats_BitRate                        : 23273
    FromStats_Duration                       : 01:53:56.914000000
    FromStats_FrameCount                     : 1856
    FromStats_StreamSize                     : 19889884

    Text #3
    ID                                       : 6
    Format                                   : PGS
    Muxing mode                              : zlib
    Codec ID                                 : S_HDMV/PGS
    Codec ID/Info                            : Picture based subtitle format used on BDs/HD-DVDs
    Language                                 : English
    Default                                  : No
    Forced                                   : No
    Statistics Tags Issue                    : mkvmerge v15.0.0 ('Duel with the Devil') 64-bit 2017-11-06 21:06:29 / mkvmerge v15.0.0 ('Duel with the Devil') 64-bit 2017-11-06 21:06:29 / UTC 2017-11-06T18:11:23Z
    FromStats_BitRate                        : 31533
    FromStats_Duration                       : 01:47:34.448000000
    FromStats_FrameCount                     : 2411
    FromStats_StreamSize                     : 25441395

    Menu
    00:00:00.000                             : :Chapter 1
    00:06:47.991                             : :Chapter 2
    00:11:03.163                             : :Chapter 3
    00:18:17.221                             : :Chapter 4
    00:24:15.579                             : :Chapter 5
    00:27:47.166                             : :Chapter 6
    00:32:50.010                             : :Chapter 7
    00:36:20.095                             : :Chapter 8
    00:40:46.152                             : :Chapter 9
    00:47:55.664                             : :Chapter 10
    00:53:13.482                             : :Chapter 11
    00:59:54.091                             : :Chapter 12
    01:03:32.767                             : :Chapter 13
    01:08:03.788                             : :Chapter 14
    01:10:52.415                             : :Chapter 15
    01:18:27.536                             : :Chapter 16
    01:24:28.397                             : :Chapter 17
    01:32:44.267                             : :Chapter 18
    01:42:06.245                             : :Chapter 19
    01:48:21.078                             : :Chapter 20

  • Peso: 5.27 GiB

Sinopsis

Lorraine Broughton (Charlize Theron) es una espía de alto nivel del MI6 que se traslada a Berlín tras la caída del muro para acabar con una peligrosa red de espionaje que acaba de asesinar a un agente encubierto que era su compañero y que, ahora, amenaza con revelar las identidades del resto de informadores de las agencias de inteligencia del mundo occidental. Para evitar que esto ocurra, Lorraine deberá formar equipo con el jefe de la sección de la capital alemana, David Percival (James McAvoy). Entre los dos tendrán que desatar todo su arsenal de habilidades para acabar con el inminente peligro que acecha a todos los agentes encubiertos en plena Guerra Fría.

Ficha técnica

Video trailer de la película

Enlaces de descarga

Descargar Atómica (2017) Full 1080p Latino

dpeliculas

Aportes de DPeliculasHDmega la pass es:dpeliculashdmega.org Aportes de CinemaniaHD la pass es:cinemaniahdd.com

Películas relacionadas

  • Saw VIII (Jigsaw) (2017) 4K HDR Latino

    2017
    Saw VIII (Jigsaw) (2017) 4K HDR Latino

    5.0 1 h 31 min 2017

    ¿Estaremos más cerca de conocer el desenlace de los macabros planes ideados por Jigsaw? Octava entrega...

    Director: Simon Board

    Género: 4K HDR

    Actores: Tobin Bell

  • First Kill (2017) 1080p Latino

    2017
    First Kill (2017) 1080p Latino

    0.0 1h 37m 2017

    El joven padre Will (Hayden Christensen) lleva a su familia en de viaje a una cabaña en el bosque. Por...

    Director: Steven C. Miller

    Género: Acción

    Actores: William DeMeo

  • Battleship (2012) 4K HDR Latino

    2012
    Battleship (2012) 4K HDR Latino

    0.0 2h 11m 2012

    “Battleship” es la libre adaptación al cine del popular juego de mesa de Hasbro conocido como “Hundir...

    Director: Peter Berg

    Género: 4K HDR

    Actores: Yutaka Takeuchi

  • Spider-Man: de regreso a casa (2017) 4K HDR Latino

    2017
    Spider-Man: de regreso a casa (2017) 4K HDR Latino

    5.0 2 h 13 min 2017

    Peter Parker (Tom Holland) comienza a experimentar su recién descubierta identidad como el superhéroe...

    Director: Lori Grabowski

    Género: 4K HDR

    Actores: Zendaya

Comentarios 9
  • Mr Friend - 08 noviembre, 2017

    Estimados amigos: Le aviso que al acceder a la página Cinemaniahdd aparece una advertencia de “sitio engañoso, etc”. Lamento que esto esté pasando. Los conozco desde hace tiempo y nunca tuve problemas de virus ni nada por el estilo. Espero que lo puedan solucionar.

    • dpelis - 08 noviembre, 2017

      dejeme capturas profavor

  • seba - 07 noviembre, 2017

    bajando gracias =)
    amigos porfavor pongan los audios de las negras a las grises asi pesan menos =)

    • Dpelis2 pelis2 - 07 noviembre, 2017

      Hola amigo siempre las Gris van con el mejor audio y video! pero aun asi tiene mucho menor peso y sin perder calidad a comparación de otras Webs
      Saludos.

  • Brian Guillen - 06 noviembre, 2017

    Hola disculpa , no hay subtitulos srt todavia? ya que creo que habias comentado que a las plateadas tambien le ibas a poner subtitulos srt aparte. saludos y gracias

  • Daniel - 06 noviembre, 2017

    Por favor no le dejes las franjas negras, en mi tv no le deja hacer full screen, cuando no hay estas franjas le pongo un zoom y se hace full screen.

    • dpelis - 10 noviembre, 2017

      descargar la version q no tiene franjas