Corazón valiente (1995) Full 1080p Latino

964 vistas
1 estrella2 estrellas3 estrellas4 estrellas5 estrellas (Ninguna valoración todavía)
Cargando…

Información de Corazón valiente (1995) Full 1080p Latino

Datos de la película

  • Calidad: Full 1080p
  • Audio: Español Latino AC3 5.1 BLURAY - Ingles DTS 5.1 BLURAY
  • Subtitulos: Español Latino SRT- FORZADOS SRT
  • Resolución: 1920x1080
  • Formato: MKV
  • Codec: H.264
  • Encoder: Dracarys
  • Mediainfo: Clic para Mostrar Datos Ver
  • Format                                   : Matroska
    Format version                           : Version 4 / Version 2
    File size                                : 10.3 GiB
    Duration                                 : 2 h 57 min
    Overall bit rate                         : 8 273 kb/s
    Movie name                               : CinemaniaHDD.com
    Encoded date                             : UTC 2018-03-18 03:12:51 / UTC 2018-03-17T03:58:48Z
    Writing application                      : mkvmerge v15.0.0 ('Duel with the Devil') 64-bit
    Writing library                          : libebml v1.3.5 + libmatroska v1.4.5 / Lavf57.7.2

    Video
    ID                                       : 1
    Format                                   : AVC
    Format/Info                              : Advanced Video Codec
    Format profile                           : High@L4.1
    Format settings                          : CABAC / 4 Ref Frames
    Format settings, CABAC                   : Yes
    Format settings, RefFrames               : 4 frames
    Codec ID                                 : V_MPEG4/ISO/AVC
    Duration                                 : 2 h 57 min
    Bit rate                                 : 5 959 kb/s
    Width                                    : 1 920 pixels
    Height                                   : 1 080 pixels
    Display aspect ratio                     : 16:9
    Frame rate mode                          : Constant
    Frame rate                               : 23.976 (24000/1001) FPS
    Color space                              : YUV
    Chroma subsampling                       : 4:2:0
    Bit depth                                : 8 bits
    Scan type                                : Progressive
    Bits/(Pixel*Frame)                       : 0.120
    Stream size                              : 7.40 GiB (72%)
    Title                                    : Corazón valiente (1995) Full 1080p Latino
    Writing library                          : x264 core 148 r2708 86b7198
    Encoding settings                        : cabac=1 / ref=4 / deblock=1:0:0 / analyse=0x3:0x133 / me=esa / subme=9 / psy=1 / psy_rd=1.00:0.00 / mixed_ref=1 / me_range=16 / chroma_me=1 / trellis=2 / 8x8dct=1 / cqm=0 / deadzone=21,11 / fast_pskip=1 / chroma_qp_offset=-2 / threads=34 / lookahead_threads=2 / sliced_threads=0 / nr=0 / decimate=1 / interlaced=0 / bluray_compat=0 / constrained_intra=0 / bframes=3 / b_pyramid=2 / b_adapt=2 / b_bias=0 / direct=3 / weightb=1 / open_gop=0 / weightp=2 / keyint=240 / keyint_min=24 / scenecut=40 / intra_refresh=0 / rc_lookahead=60 / rc=crf / mbtree=1 / crf=21.0 / qcomp=0.60 / qpmin=0 / qpmax=69 / qpstep=4 / vbv_maxrate=62500 / vbv_bufsize=78125 / crf_max=0.0 / nal_hrd=none / filler=0 / ip_ratio=1.40 / aq=1:1.00
    Language                                 : English
    Default                                  : Yes
    Forced                                   : No
    Color range                              : Limited
    Color primaries                          : BT.709
    Transfer characteristics                 : BT.709
    Matrix coefficients                      : BT.709
    Statistics Tags Issue                    : mkvmerge v15.0.0 ('Duel with the Devil') 64-bit 2018-03-18 03:12:51 / mkvmerge v15.0.0 ('Duel with the Devil') 64-bit 2018-03-18 03:12:51 / UTC 2018-03-17T03:58:48Z
    FromStats_BitRate                        : 6110545
    FromStats_Duration                       : 02:57:44.654000000
    FromStats_FrameCount                     : 255696
    FromStats_StreamSize                     : 8145856345

    Audio #1
    ID                                       : 2
    Format                                   : AC-3
    Format/Info                              : Audio Coding 3
    Format settings, Endianness              : Big
    Codec ID                                 : A_AC3
    Duration                                 : 2 h 57 min
    Bit rate mode                            : Constant
    Bit rate                                 : 640 kb/s
    Channel(s)                               : 6 channels
    Channel positions                        : Front: L C R, Side: L R, LFE
    Sampling rate                            : 48.0 kHz
    Frame rate                               : 31.250 FPS (1536 SPF)
    Bit depth                                : 16 bits
    Compression mode                         : Lossy
    Delay relative to video                  : 3 s 0 ms
    Stream size                              : 814 MiB (8%)
    Language                                 : Spanish
    Service kind                             : Complete Main
    Default                                  : Yes
    Forced                                   : No
    Statistics Tags Issue                    : mkvmerge v15.0.0 ('Duel with the Devil') 64-bit 2018-03-18 03:12:51 / mkvmerge v15.0.0 ('Duel with the Devil') 64-bit 2018-03-18 03:12:51 / UTC 2018-03-17T03:58:48Z
    FromStats_BitRate                        : 640000
    FromStats_Duration                       : 02:57:43.168000000
    FromStats_FrameCount                     : 333224
    FromStats_StreamSize                     : 853053440

    Audio #2
    ID                                       : 3
    Format                                   : DTS
    Format/Info                              : Digital Theater Systems
    Mode                                     : 16
    Format settings, Endianness              : Big
    Codec ID                                 : A_DTS
    Duration                                 : 2 h 57 min
    Bit rate mode                            : Constant
    Bit rate                                 : 1 509 kb/s
    Channel(s)                               : 6 channels
    Channel positions                        : Front: L C R, Side: L R, LFE
    Sampling rate                            : 48.0 kHz
    Frame rate                               : 93.750 FPS (512 SPF)
    Bit depth                                : 24 bits
    Compression mode                         : Lossy
    Delay relative to video                  : 2 ms
    Stream size                              : 1.87 GiB (18%)
    Language                                 : English
    Default                                  : No
    Forced                                   : No
    Statistics Tags Issue                    : mkvmerge v15.0.0 ('Duel with the Devil') 64-bit 2018-03-18 03:12:51 / mkvmerge v15.0.0 ('Duel with the Devil') 64-bit 2018-03-18 03:12:51 / UTC 2018-03-17T03:58:48Z
    FromStats_BitRate                        : 1508999
    FromStats_Duration                       : 02:57:44.651000000
    FromStats_FrameCount                     : 999811
    FromStats_StreamSize                     : 2011619732

    Text #1
    ID                                       : 4
    Format                                   : UTF-8
    Codec ID                                 : S_TEXT/UTF8
    Codec ID/Info                            : UTF-8 Plain Text
    Title                                    : Forzados SRT
    Language                                 : Spanish
    Default                                  : Yes
    Forced                                   : Yes
    Statistics Tags Issue                    : mkvmerge v15.0.0 ('Duel with the Devil') 64-bit 2018-03-18 03:12:51 / mkvmerge v15.0.0 ('Duel with the Devil') 64-bit 2018-03-18 03:12:51 / UTC 2018-03-17T03:58:48Z
    FromStats_BitRate                        : 1
    FromStats_Duration                       : 01:47:19.724000000
    FromStats_FrameCount                     : 37
    FromStats_StreamSize                     : 1071

    Text #2
    ID                                       : 5
    Format                                   : UTF-8
    Codec ID                                 : S_TEXT/UTF8
    Codec ID/Info                            : UTF-8 Plain Text
    Title                                    : Completos-SRT
    Language                                 : Spanish
    Default                                  : No
    Forced                                   : No
    Statistics Tags Issue                    : mkvmerge v15.0.0 ('Duel with the Devil') 64-bit 2018-03-18 03:12:51 / mkvmerge v15.0.0 ('Duel with the Devil') 64-bit 2018-03-18 03:12:51 / UTC 2018-03-17T03:58:48Z
    FromStats_BitRate                        : 29
    FromStats_Duration                       : 02:49:48.594000000
    FromStats_FrameCount                     : 1279
    FromStats_StreamSize                     : 37552

    Text #3
    ID                                       : 6
    Format                                   : PGS
    Muxing mode                              : zlib
    Codec ID                                 : S_HDMV/PGS
    Codec ID/Info                            : Picture based subtitle format used on BDs/HD-DVDs
    Title                                    : Completos-PGS
    Language                                 : Spanish
    Default                                  : No
    Forced                                   : No
    Statistics Tags Issue                    : mkvmerge v15.0.0 ('Duel with the Devil') 64-bit 2018-03-18 03:12:51 / mkvmerge v15.0.0 ('Duel with the Devil') 64-bit 2018-03-18 03:12:51 / UTC 2018-03-17T03:58:48Z
    FromStats_BitRate                        : 18771
    FromStats_Duration                       : 02:49:48.595000000
    FromStats_FrameCount                     : 2602
    FromStats_StreamSize                     : 23906605

    Text #4
    ID                                       : 7
    Format                                   : PGS
    Muxing mode                              : zlib
    Codec ID                                 : S_HDMV/PGS
    Codec ID/Info                            : Picture based subtitle format used on BDs/HD-DVDs
    Title                                    : Completos-PGS
    Language                                 : English
    Default                                  : No
    Forced                                   : No
    Statistics Tags Issue                    : mkvmerge v15.0.0 ('Duel with the Devil') 64-bit 2018-03-18 03:12:51 / mkvmerge v15.0.0 ('Duel with the Devil') 64-bit 2018-03-18 03:12:51 / UTC 2018-03-17T03:58:48Z
    FromStats_BitRate                        : 21369
    FromStats_Duration                       : 02:48:54.624000000
    FromStats_FrameCount                     : 2234
    FromStats_StreamSize                     : 27071876

    Menu
    00:00:00.000                             : :Chapter 1
    00:07:28.531                             : :Chapter 2
    00:16:27.653                             : :Chapter 3
    00:22:03.697                             : :Chapter 4
    00:34:19.891                             : :Chapter 5
    00:39:52.682                             : :Chapter 6
    00:56:07.990                             : :Chapter 7
    01:00:04.267                             : :Chapter 8
    01:07:31.047                             : :Chapter 9
    01:11:54.936                             : :Chapter 10
    01:19:02.738                             : :Chapter 11
    01:33:06.206                             : :Chapter 12
    01:43:47.722                             : :Chapter 13
    01:53:57.831                             : :Chapter 14
    01:59:01.468                             : :Chapter 15
    02:17:18.480                             : :Chapter 16
    02:24:21.987                             : :Chapter 17
    02:28:52.799                             : :Chapter 18
    02:34:15.413                             : :Chapter 19
    02:36:35.094                             : :Chapter 20
    02:46:56.924                             : :Chapter 21
    02:50:46.403                             : :Chapter 22

  • Peso: 10.3 GiB

Sinopsis

¿Qué clase de hombre desafiaría a un rey? Mel Gibson protagoniza y dirige esta historia épica medieval sobre la independencia de Escocia en el siglo XIII. “Braveheart” está basada en la legendaria historia de Sir William Wallace (Mel Gibson), un montañés escocés que arrastra a su clan a luchar contra la tiranía del rey Eduardo I. Después del brutal asesinato de su joven esposa por los ingleses, Wallace sólo busca venganza. Hambrientos y en inferior número, Wallace lidera a los patriotas escoceses y consigue organizar un ejército de guerreros sedientos de libertad logrando recuperar con ello el espíritu que haría a Escocia libre para siempre.

Ficha técnica

Video trailer de la película

Enlaces de descarga

Rip de Bluray

Descargar Corazón valiente (1995) Full 1080p Latino




Aportes de DPeliculasHDmega la pass es:dpeliculashdmega.org Aportes de CinemaniaHD la pass es:cinemaniahdd.com

Películas relacionadas

  • A Ghost Story (2017) 1080p Latino

    2017
    A Ghost Story (2017) 1080p Latino

    0.0 1h 27m 2017

    Un hombre recientemente fallecido regresa a su casa como un fantasma vestido con una sábana blanca para...

    Director: David Lowery

    Género: Drama

    Actores: Yasmina Gutierrez

  • Bushwick (2017) 1080p Latino

    2017
    Bushwick (2017) 1080p Latino

    5.0 1h 34m 2017

    Cuando Lucy sale del metro en Bushwick, el último barrio de moda de Nueva York, no encuentra ni hipsters...

    Director: Jonathan Milott

    Género: Acción

    Actores: Myra Lucretia Taylor

  • Gun shy (2017) 1080p Latino

    2017
    Gun shy (2017) 1080p Latino

    0.0 1h 31m 2017

    Basada en la novela homónima de Mark Haskell Smith. Turk Henry es una antigua estrella de rock con sobrepeso...

    Director: Simon West

    Género: Acción

    Actores: Sebastián Apiolaza

  • Deep Blue Sea 2 (2018) 1080p Latino

    2018
    Deep Blue Sea 2 (2018) 1080p Latino

    5.0 1h 34m 2018

    La Doctora Misty Calhoun, conservacionista de tiburones, es invitada para asesorar un proyecto secreto...

    Director: Darin Scott

    Género: Acción

    Actores: Rob Mayes

  • Maze Runner prueba de fuego (2015) Full 1080p Latino

    2015
    Maze Runner prueba de fuego (2015) Full 1080p Latino

    5.0 2 h 11 min 2015

    En este nuevo capítulo de la trepidante saga "El Corredor del Laberinto", Thomas (Dylan O'Brien) y el...

    Director: Wes Ball

    Género: Acción

    Actores: Thomas Brodie-Sangster

Comentarios 3
  • ocpgaiden - 22 marzo, 2018

    con esta pelicula se consagro mel gibson como director, gracias nuevamente

  • cesar velarde lobos - 21 marzo, 2018

    no se puede descargar las peliculas que ha pasado con esta pagina que a mi enterder era muy buena para descargar y rapida favor mandar una solucion o tutorial para seguir descargando en esta pagina