Dos policías rebeldes II (2003) Full 1080p Latino

845 vistas
1 estrella2 estrellas3 estrellas4 estrellas5 estrellas (Ninguna valoración todavía)
Cargando…

Información de Dos policías rebeldes II (2003) Full 1080p Latino

Datos de la película

  • Calidad: Full 1080p
  • Audio: Español Latino AC3 5.1 BLURAY - Ingles DTS 5.1 BLURAY
  • Subtitulos: Español Latino PGS - Ingles PGS
  • Resolución: 1920X1080p
  • Formato: MKV
  • Codec: H.264
  • Encoder: Dracarys
  • Mediainfo: Clic para Mostrar Datos Ver
  • Format                                   : Matroska
    Format version                           : Version 4 / Version 2
    File size                                : 13.7 GiB
    Duration                                 : 2 h 26 min
    Overall bit rate                         : 13.4 Mb/s
    Movie name                               : CinemaniaHDD.com
    Encoded date                             : UTC 2018-03-08 19:58:58 / UTC 2018-03-08T04:01:25Z
    Writing application                      : mkvmerge v15.0.0 ('Duel with the Devil') 64-bit
    Writing library                          : libebml v1.3.5 + libmatroska v1.4.5 / Lavf57.7.2

    Video
    ID                                       : 1
    Format                                   : AVC
    Format/Info                              : Advanced Video Codec
    Format profile                           : High@L4.1
    Format settings                          : CABAC / 4 Ref Frames
    Format settings, CABAC                   : Yes
    Format settings, RefFrames               : 4 frames
    Codec ID                                 : V_MPEG4/ISO/AVC
    Duration                                 : 2 h 26 min
    Bit rate                                 : 11.1 Mb/s
    Width                                    : 1 920 pixels
    Height                                   : 1 080 pixels
    Display aspect ratio                     : 16:9
    Frame rate mode                          : Constant
    Frame rate                               : 23.976 (24000/1001) FPS
    Color space                              : YUV
    Chroma subsampling                       : 4:2:0
    Bit depth                                : 8 bits
    Scan type                                : Progressive
    Bits/(Pixel*Frame)                       : 0.224
    Stream size                              : 11.4 GiB (83%)
    Title                                    : Dos policías rebeldes II (2003) Full 1080p Latino
    Writing library                          : x264 core 148 r2708 86b7198
    Encoding settings                        : cabac=1 / ref=4 / deblock=1:0:0 / analyse=0x3:0x133 / me=esa / subme=10 / psy=1 / psy_rd=1.00:0.00 / mixed_ref=1 / me_range=24 / chroma_me=1 / trellis=2 / 8x8dct=1 / cqm=0 / deadzone=21,11 / fast_pskip=1 / chroma_qp_offset=-2 / threads=34 / lookahead_threads=5 / sliced_threads=0 / nr=0 / decimate=1 / interlaced=0 / bluray_compat=0 / constrained_intra=0 / bframes=8 / b_pyramid=2 / b_adapt=2 / b_bias=0 / direct=3 / weightb=1 / open_gop=0 / weightp=2 / keyint=240 / keyint_min=24 / scenecut=40 / intra_refresh=0 / rc_lookahead=60 / rc=crf / mbtree=1 / crf=20.0 / qcomp=0.60 / qpmin=0 / qpmax=69 / qpstep=4 / vbv_maxrate=62500 / vbv_bufsize=78125 / crf_max=0.0 / nal_hrd=none / filler=0 / ip_ratio=1.40 / aq=1:1.00
    Language                                 : English
    Default                                  : Yes
    Forced                                   : No
    Color range                              : Limited
    Color primaries                          : BT.709
    Transfer characteristics                 : BT.709
    Matrix coefficients                      : BT.709
    Statistics Tags Issue                    : mkvmerge v15.0.0 ('Duel with the Devil') 64-bit 2018-03-08 19:58:58 / mkvmerge v15.0.0 ('Duel with the Devil') 64-bit 2018-03-08 19:58:58 / UTC 2018-03-08T04:01:25Z
    FromStats_BitRate                        : 11361600
    FromStats_Duration                       : 02:26:44.338000000
    FromStats_FrameCount                     : 211093
    FromStats_StreamSize                     : 12503921184

    Audio #1
    ID                                       : 2
    Format                                   : AC-3
    Format/Info                              : Audio Coding 3
    Format settings, Endianness              : Big
    Codec ID                                 : A_AC3
    Duration                                 : 2 h 26 min
    Bit rate mode                            : Constant
    Bit rate                                 : 448 kb/s
    Channel(s)                               : 6 channels
    Channel positions                        : Front: L C R, Side: L R, LFE
    Sampling rate                            : 44.1 kHz
    Frame rate                               : 28.711 FPS (1536 SPF)
    Bit depth                                : 16 bits
    Compression mode                         : Lossy
    Delay relative to video                  : 10 ms
    Stream size                              : 470 MiB (3%)
    Language                                 : Spanish
    Service kind                             : Complete Main
    Default                                  : Yes
    Forced                                   : No
    Statistics Tags Issue                    : mkvmerge v15.0.0 ('Duel with the Devil') 64-bit 2018-03-08 19:58:58 / mkvmerge v15.0.0 ('Duel with the Devil') 64-bit 2018-03-08 19:58:58 / UTC 2018-03-08T04:01:25Z
    FromStats_BitRate                        : 447999
    FromStats_Duration                       : 02:26:39.852000000
    FromStats_FrameCount                     : 252652
    FromStats_StreamSize                     : 492791672

    Audio #2
    ID                                       : 3
    Format                                   : DTS
    Format/Info                              : Digital Theater Systems
    Mode                                     : 16
    Format settings, Endianness              : Big
    Codec ID                                 : A_DTS
    Duration                                 : 2 h 26 min
    Bit rate mode                            : Constant
    Bit rate                                 : 1 509 kb/s
    Channel(s)                               : 6 channels
    Channel positions                        : Front: L C R, Side: L R, LFE
    Sampling rate                            : 48.0 kHz
    Frame rate                               : 93.750 FPS (512 SPF)
    Bit depth                                : 16 bits
    Compression mode                         : Lossy
    Stream size                              : 1.55 GiB (11%)
    Language                                 : English
    Default                                  : No
    Forced                                   : No
    Statistics Tags Issue                    : mkvmerge v15.0.0 ('Duel with the Devil') 64-bit 2018-03-08 19:58:58 / mkvmerge v15.0.0 ('Duel with the Devil') 64-bit 2018-03-08 19:58:58 / UTC 2018-03-08T04:01:25Z
    FromStats_BitRate                        : 1508999
    FromStats_Duration                       : 02:26:44.374000000
    FromStats_FrameCount                     : 825410
    FromStats_StreamSize                     : 1660724920

    Text #1
    ID                                       : 4
    Format                                   : UTF-8
    Codec ID                                 : S_TEXT/UTF8
    Codec ID/Info                            : UTF-8 Plain Text
    Title                                    : SRT
    Language                                 : Spanish
    Default                                  : No
    Forced                                   : No
    Statistics Tags Issue                    : mkvmerge v15.0.0 ('Duel with the Devil') 64-bit 2018-03-08 19:58:58 / mkvmerge v15.0.0 ('Duel with the Devil') 64-bit 2018-03-08 19:58:58 / UTC 2018-03-08T04:01:25Z
    FromStats_BitRate                        : 74
    FromStats_Duration                       : 02:21:03.292000000
    FromStats_FrameCount                     : 1907
    FromStats_StreamSize                     : 79177

    Text #2
    ID                                       : 5
    Format                                   : PGS
    Muxing mode                              : zlib
    Codec ID                                 : S_HDMV/PGS
    Codec ID/Info                            : Picture based subtitle format used on BDs/HD-DVDs
    Title                                    : PGS
    Language                                 : Spanish
    Default                                  : No
    Forced                                   : No
    Statistics Tags Issue                    : mkvmerge v15.0.0 ('Duel with the Devil') 64-bit 2018-03-08 19:58:58 / mkvmerge v15.0.0 ('Duel with the Devil') 64-bit 2018-03-08 19:58:58 / UTC 2018-03-08T04:01:25Z
    FromStats_BitRate                        : 68625
    FromStats_Duration                       : 02:21:03.297000000
    FromStats_FrameCount                     : 3814
    FromStats_StreamSize                     : 72599994

    Text #3
    ID                                       : 6
    Format                                   : PGS
    Muxing mode                              : zlib
    Codec ID                                 : S_HDMV/PGS
    Codec ID/Info                            : Picture based subtitle format used on BDs/HD-DVDs
    Title                                    : PGS
    Language                                 : English
    Default                                  : No
    Forced                                   : No
    Statistics Tags Issue                    : mkvmerge v15.0.0 ('Duel with the Devil') 64-bit 2018-03-08 19:58:58 / mkvmerge v15.0.0 ('Duel with the Devil') 64-bit 2018-03-08 19:58:58 / UTC 2018-03-08T04:01:25Z
    FromStats_BitRate                        : 45270
    FromStats_Duration                       : 02:25:12.787000000
    FromStats_FrameCount                     : 4518
    FromStats_StreamSize                     : 49303578

    Menu
    00:00:00.000                             : :Chapter 1
    00:11:04.497                             : :Chapter 2
    00:21:54.396                             : :Chapter 3
    00:39:54.767                             : :Chapter 4
    00:45:27.683                             : :Chapter 5
    00:53:27.788                             : :Chapter 6
    00:59:01.246                             : :Chapter 7
    01:06:26.065                             : :Chapter 8
    01:11:28.618                             : :Chapter 9
    01:17:53.169                             : :Chapter 10
    01:30:27.130                             : :Chapter 11
    01:37:37.977                             : :Chapter 12
    01:45:53.764                             : :Chapter 13
    01:56:46.625                             : :Chapter 14
    02:05:07.583                             : :Chapter 15
    02:16:06.700                             : :Chapter 16

  • Peso: 13.7 GiB

Sinopsis

En esta nueva aventura, los detectives de narcóticos de Miami, Mike Lowrey (Will Smith) y Marcus Burnett (Martin Lawrence), son asignados para formar parte de un equipo de alta tecnología que trata de destapar la trama del diseño de éxtasis en Miami. Pero inconscientemente descubren una conspiración mortal que involucra a un despiadado señor de la droga, Johnny Tapia (Jordi Mollà), que está decidido a expandir su imperio y tomar el control del negocio de la venta de narcóticos en la ciudad matando a cualquiera que se interponga en su camino. Para empeorar las cosas, la bella hermana de Marcus, Syd (Gabrielle Union), una agente infiltrada de la DEA, se queda atrapada en el fuego cruzado, forzando a nuestros héroes a situarse al límite de la ley. Todo se complica todavía más cuando Cupido empieza a sobrevolar sobre Mike y Syd, provocando las iras de su protector hermano.

Ficha técnica

Video trailer de la película

Enlaces de descarga

Rip de Bluray

Descargar Dos policías rebeldes II (2003) Full 1080p Latino




Aportes de DPeliculasHDmega la pass es:dpeliculashdmega.org Aportes de CinemaniaHD la pass es:cinemaniahdd.com

Películas relacionadas

  • Tremors a cold day in hell (2018)1080p Latino

    2018
    Tremors a cold day in hell (2018)1080p Latino

    0.0 0h 0m 2018

    La secuela nos muestra a Burt Gummer y a su hijo Travis en una estación de investiagción remota, donde...

    Director: Don Michael Paul

    Género: Acción

    Actores: Tanya van Graan

  • Psychokinesis (2018) NF Web-dl 1080p Latino

    2018
    Psychokinesis (2018) NF Web-dl 1080p Latino

    0.0 1h 41m 2018

    Comedia coreana en la que un padre que se propone a salvar a su hija con unos superpoderes que acaba...

    Director: Yeon Sang-Ho

    Género: Acción

    Actores: Yoo Seung-mok

  • Mamá de alquiler (2008) Full 1080p Latino

    2008
    Mamá de alquiler (2008) Full 1080p Latino

    0.0 33h 28m 2008

    Una brillante mujer de negocios sueña con tener un hijo, pero descubre que no es fértil, por lo que...

    Director: Michael McCullers

    Género: Comedia

    Actores: Will Forte

Comentarios 3
  • RuddyYankee - 13 marzo, 2018

    Una pregunta amigos, ya no los mismo Administradores que siempre estaba en Cinemania, veo que éstos contenido lo hacían con menos pesos pero con la misma calidad, éso lo trabajaban en el ripeo, pero veo que ante se llamaba de peliculashdmega,org luego volvieron al dominio de siempre pero ya ni el facebook existe

    • dpelis - 13 marzo, 2018

      la configuracion es la misma nose a cambiado nada. saludos

  • Anibal - 10 marzo, 2018

    WWOOOWW mil gracias por subir ambas pelis. Tanto la 1 como la 2, se agradece muchísimo.