El juego de Gerald (2017) 1080p WEB-DL Latino

2.215 vistas
1 estrella2 estrellas3 estrellas4 estrellas5 estrellas (1 votos, promedio: 5,00 de 5)
Cargando…

Información de El juego de Gerald (2017) 1080p WEB-DL Latino

Datos de la película

  • Calidad: WEBDL
  • Audio: Español Latino AC3 5.1 Netflix - Ingles AC3 5.1 Netflix
  • Subtitulos: Español Latino SRT - Ingles SRT
  • Resolución: 1920x1080p
  • Formato: MKV
  • Codec: H.264
  • Encoder: Dpelis1
  • Mediainfo: Clic para Mostrar Datos Ver
  • Video
    ID                                       : 1
    Format                                   : AVC
    Format/Info                              : Advanced Video Codec
    Format profile                           : [email protected]
    Format settings, CABAC                   : Yes
    Format settings, RefFrames               : 5 frames
    Codec ID                                 : V_MPEG4/ISO/AVC
    Duration                                 : 1 h 43 min
    Bit rate                                 : 3 413 kb/s
    Width                                    : 1 920 pixels
    Height                                   : 804 pixels
    Display aspect ratio                     : 2.40:1
    Frame rate mode                          : Constant
    Frame rate                               : 23.976 (24000/1001) FPS
    Color space                              : YUV
    Chroma subsampling                       : 4:2:0
    Bit depth                                : 8 bits
    Scan type                                : Progressive
    Bits/(Pixel*Frame)                       : 0.092
    Stream size                              : 2.47 GiB (86%)
    Writing library                          : x264 core 152 r2851 ba24899
    Encoding settings                        : cabac=1 / ref=5 / deblock=1:-3:-3 / analyse=0x3:0x113 / me=umh / subme=8 / psy=1 / psy_rd=1.00:0.15 / mixed_ref=1 / me_range=16 / chroma_me=1 / trellis=2 / 8x8dct=1 / cqm=0 / deadzone=21,11 / fast_pskip=0 / chroma_qp_offset=-2 / threads=12 / lookahead_threads=2 / sliced_threads=0 / nr=0 / decimate=1 / interlaced=0 / bluray_compat=0 / constrained_intra=0 / bframes=3 / b_pyramid=2 / b_adapt=1 / b_bias=0 / direct=3 / weightb=1 / open_gop=0 / weightp=2 / keyint=240 / keyint_min=23 / scenecut=40 / intra_refresh=0 / rc_lookahead=50 / rc=crf / mbtree=1 / crf=17.0 / qcomp=0.60 / qpmin=0 / qpmax=69 / qpstep=4 / ip_ratio=1.40 / aq=3:0.80
    Language                                 : English
    Default                                  : Yes
    Forced                                   : No

    Audio #1
    ID                                       : 2
    Format                                   : E-AC-3
    Format/Info                              : Enhanced Audio Coding 3
    Format settings, Endianness              : Big
    Codec ID                                 : A_EAC3
    Duration                                 : 1 h 43 min
    Bit rate mode                            : Constant
    Bit rate                                 : 192 kb/s
    Channel(s)                               : 6 channels
    Channel positions                        : Front: L C R, Side: L R, LFE
    Sampling rate                            : 48.0 kHz
    Frame rate                               : 187.500 FPS (256 SPF)
    Compression mode                         : Lossy
    Stream size                              : 142 MiB (5%)
    Language                                 : Spanish
    Service kind                             : Complete Main
    Default                                  : No
    Forced                                   : No

    Audio #2
    ID                                       : 3
    Format                                   : AC-3
    Format/Info                              : Audio Coding 3
    Format settings, Endianness              : Big
    Codec ID                                 : A_AC3
    Duration                                 : 1 h 43 min
    Bit rate mode                            : Constant
    Bit rate                                 : 384 kb/s
    Channel(s)                               : 6 channels
    Channel positions                        : Front: L C R, Side: L R, LFE
    Sampling rate                            : 48.0 kHz
    Frame rate                               : 31.250 FPS (1536 SPF)
    Bit depth                                : 16 bits
    Compression mode                         : Lossy
    Stream size                              : 284 MiB (10%)
    Language                                 : English
    Service kind                             : Complete Main
    Default                                  : Yes
    Forced                                   : No

    Text #1
    ID                                       : 4
    Format                                   : UTF-8
    Codec ID                                 : S_TEXT/UTF8
    Codec ID/Info                            : UTF-8 Plain Text
    Duration                                 : 10 s 100 ms
    Bit rate                                 : 87 b/s
    Count of elements                        : 1
    Stream size                              : 110 Bytes (0%)
    Default                                  : Yes
    Forced                                   : No

    Text #2
    ID                                       : 5
    Format                                   : UTF-8
    Codec ID                                 : S_TEXT/UTF8
    Codec ID/Info                            : UTF-8 Plain Text
    Duration                                 : 1 h 42 min
    Bit rate                                 : 49 b/s
    Count of elements                        : 1016
    Stream size                              : 37.2 KiB (0%)
    Language                                 : Spanish
    Default                                  : No
    Forced                                   : No

    Text #3
    ID                                       : 6
    Format                                   : UTF-8
    Codec ID                                 : S_TEXT/UTF8
    Codec ID/Info                            : UTF-8 Plain Text
    Duration                                 : 1 h 36 min
    Bit rate                                 : 53 b/s
    Count of elements                        : 1157
    Stream size                              : 37.6 KiB (0%)
    Language                                 : English
    Default                                  : No
    Forced                                   : No

  • Peso: 2,88 GB

Sinopsis

Deescargar gratis El juego de Gerald (2017) 1080p WEB-DL Latino. Jessie (Carla Gugino) y Gerald (Bruce Greenwood) son un matrimonio maduro que viaja a una remota cabaña con la esperanza de revitalizar su deteriorada relación en un sitio apartado y tranquilo. Allí Gerald propone a su mujer un juego sexual: esposarla a la cama para incrementar las sensaciones. Pero cuando éste muere de un infarto, Jessie tendrá que luchar por su supervivencia.

Ficha técnica

  • Titulo original: Gerald's Game
  • Fecha de lanzamiento: 24-09-2017 (United States of America)
  • Director: Mike Flanagan
  • Género: Suspense, Terror
  • Puntuación: 5.0 1 votos
  • Duración:
    1h 43m

Video trailer de la película

Enlaces de descarga

Descargar El juego de Gerald (2017) 1080p WEB-DL Latino

dpeliculas

Aportes de DPeliculasHDmega la pass es:dpeliculashdmega.org Aportes de CinemaniaHD la pass es:cinemaniahdd.com
Guardado en : Suspense , Terror

Películas relacionadas

  • Forgotten (2017) NF 1080p Latino

    2017
    Forgotten (2017) NF 1080p Latino

    5.0 1h 48m 2017

    Jin-seok, de 21 años, se muda a una nueva casa con su familia. Padece una esquizofrenia leve pero lleva...

    Director: Jang Hang-jun

    Género: Suspense

    Actores: Na Young-hee

  • Dos policías rebeldes (1995) Full 1080p Latino

    1995
    Dos policías rebeldes (1995) Full 1080p Latino

    5.0 1 h 58 min 1995

    Un alijo de heroína valorada en unos 100 millones de dólares es robado del mismísimo depósito de...

    Director: Michael Bay

    Género: Acción

    Actores: Will Smith

  • Actos De Venganza (2017) Full 1080p Latino

    2017
    Actos De Venganza (2017) Full 1080p Latino

    5.0 1 h 27 min 2017

    Antonio Banderas se meterá en la piel de un abogado que sufre un tremendo trauma al perder a su mujer...

    Director: Isaac Florentine

    Género: Acción

    Actores: Robert Forster

  • Saw VIII (Jigsaw) (2017) 4K HDR Latino

    2017
    Saw VIII (Jigsaw) (2017) 4K HDR Latino

    5.0 1 h 31 min 2017

    ¿Estaremos más cerca de conocer el desenlace de los macabros planes ideados por Jigsaw? Octava entrega...

    Director: Simon Board

    Género: 4K HDR

    Actores: Tobin Bell

Comentarios 2
  • jonhatan - 06 octubre, 2017

    que onda con los subtitulos?

  • BaltazarAl - 02 octubre, 2017

    Excelente libro…. veamos que tal la película… Gracias!!!