El muñeco de nieve (2017) Full 1080p Latino

1.666 vistas
1 estrella2 estrellas3 estrellas4 estrellas5 estrellas (Ninguna valoración todavía)
Cargando…

Información de El muñeco de nieve (2017) Full 1080p Latino

Datos de la película

  • Calidad: Full 1080p
  • Audio: Español Latino DTS 5.1 BLURAY - Ingles DTS 5.1 BLURAY
  • Subtitulos: Español Latino PGS - Ingles PGS
  • Resolución: 1920X1080p
  • Formato: MKV
  • Codec: H.264
  • Encoder: Dracarys
  • Mediainfo: Clic para Mostrar Datos Ver
  • Format                                   : Matroska
    Format version                           : Version 4 / Version 2
    File size                                : 5.92 GiB
    Duration                                 : 1 h 59 min
    Overall bit rate                         : 7 104 kb/s
    Movie name                               : CinemaniaHDD.com
    Encoded date                             : UTC 2018-01-07 18:32:28 / UTC 2018-01-07T06:34:59Z
    Writing application                      : mkvmerge v15.0.0 ('Duel with the Devil') 64-bit
    Writing library                          : libebml v1.3.5 + libmatroska v1.4.5 / Lavf57.7.2

    Video
    ID                                       : 1
    Format                                   : AVC
    Format/Info                              : Advanced Video Codec
    Format profile                           : High@L4.1
    Format settings                          : CABAC / 4 Ref Frames
    Format settings, CABAC                   : Yes
    Format settings, RefFrames               : 4 frames
    Codec ID                                 : V_MPEG4/ISO/AVC
    Duration                                 : 1 h 59 min
    Bit rate                                 : 4 686 kb/s
    Width                                    : 1 920 pixels
    Height                                   : 1 080 pixels
    Display aspect ratio                     : 16:9
    Frame rate mode                          : Constant
    Frame rate                               : 23.976 (24000/1001) FPS
    Color space                              : YUV
    Chroma subsampling                       : 4:2:0
    Bit depth                                : 8 bits
    Scan type                                : Progressive
    Bits/(Pixel*Frame)                       : 0.094
    Stream size                              : 3.90 GiB (66%)
    Title                                    : El muñeco de nieve (2017) Full 1080p Latino
    Writing library                          : x264 core 148 r2708 86b7198
    Encoding settings                        : cabac=1 / ref=4 / deblock=1:0:0 / analyse=0x3:0x133 / me=esa / subme=10 / psy=1 / psy_rd=1.00:0.00 / mixed_ref=1 / me_range=24 / chroma_me=1 / trellis=2 / 8x8dct=1 / cqm=0 / deadzone=21,11 / fast_pskip=1 / chroma_qp_offset=-2 / threads=34 / lookahead_threads=5 / sliced_threads=0 / nr=0 / decimate=1 / interlaced=0 / bluray_compat=0 / constrained_intra=0 / bframes=8 / b_pyramid=2 / b_adapt=2 / b_bias=0 / direct=3 / weightb=1 / open_gop=0 / weightp=2 / keyint=240 / keyint_min=24 / scenecut=40 / intra_refresh=0 / rc_lookahead=60 / rc=crf / mbtree=1 / crf=20.0 / qcomp=0.60 / qpmin=0 / qpmax=69 / qpstep=4 / vbv_maxrate=62500 / vbv_bufsize=78125 / crf_max=0.0 / nal_hrd=none / filler=0 / ip_ratio=1.40 / aq=1:1.00
    Language                                 : English
    Default                                  : Yes
    Forced                                   : No
    Color range                              : Limited
    Color primaries                          : BT.709
    Transfer characteristics                 : BT.709
    Matrix coefficients                      : BT.709
    Statistics Tags Issue                    : mkvmerge v15.0.0 ('Duel with the Devil') 64-bit 2018-01-07 18:32:28 / mkvmerge v15.0.0 ('Duel with the Devil') 64-bit 2018-01-07 18:32:28 / UTC 2018-01-07T06:34:59Z
    FromStats_BitRate                        : 4808087
    FromStats_Duration                       : 01:59:15.148000000
    FromStats_FrameCount                     : 171552
    FromStats_StreamSize                     : 4300321858

    Audio #1
    ID                                       : 2
    Format                                   : DTS
    Format/Info                              : Digital Theater Systems
    Mode                                     : 16
    Format settings, Endianness              : Big
    Codec ID                                 : A_DTS
    Duration                                 : 1 h 59 min
    Bit rate mode                            : Constant
    Bit rate                                 : 768 kb/s
    Channel(s)                               : 6 channels
    Channel positions                        : Front: L C R, Side: L R, LFE
    Sampling rate                            : 48.0 kHz
    Frame rate                               : 93.750 FPS (512 SPF)
    Bit depth                                : 24 bits
    Compression mode                         : Lossy
    Stream size                              : 655 MiB (11%)
    Language                                 : Spanish
    Default                                  : Yes
    Forced                                   : No
    Statistics Tags Issue                    : mkvmerge v15.0.0 ('Duel with the Devil') 64-bit 2018-01-07 18:32:28 / mkvmerge v15.0.0 ('Duel with the Devil') 64-bit 2018-01-07 18:32:28 / UTC 2018-01-07T06:34:59Z
    FromStats_BitRate                        : 767999
    FromStats_Duration                       : 01:59:15.158000000
    FromStats_FrameCount                     : 670796
    FromStats_StreamSize                     : 686895104

    Audio #2
    ID                                       : 3
    Format                                   : DTS
    Format/Info                              : Digital Theater Systems
    Mode                                     : 16
    Format settings, Endianness              : Big
    Codec ID                                 : A_DTS
    Duration                                 : 1 h 59 min
    Bit rate mode                            : Constant
    Bit rate                                 : 1 509 kb/s
    Channel(s)                               : 6 channels
    Channel positions                        : Front: L C R, Side: L R, LFE
    Sampling rate                            : 48.0 kHz
    Frame rate                               : 93.750 FPS (512 SPF)
    Bit depth                                : 24 bits
    Compression mode                         : Lossy
    Stream size                              : 1.26 GiB (21%)
    Language                                 : English
    Default                                  : No
    Forced                                   : No
    Statistics Tags Issue                    : mkvmerge v15.0.0 ('Duel with the Devil') 64-bit 2018-01-07 18:32:28 / mkvmerge v15.0.0 ('Duel with the Devil') 64-bit 2018-01-07 18:32:28 / UTC 2018-01-07T06:34:59Z
    FromStats_BitRate                        : 1508999
    FromStats_Duration                       : 01:59:15.158000000
    FromStats_FrameCount                     : 670796
    FromStats_StreamSize                     : 1349641552

    Text #1
    ID                                       : 4
    Format                                   : PGS
    Muxing mode                              : zlib
    Codec ID                                 : S_HDMV/PGS
    Codec ID/Info                            : Picture based subtitle format used on BDs/HD-DVDs
    Title                                    : Forzados
    Language                                 : Spanish
    Default                                  : Yes
    Forced                                   : Yes
    Statistics Tags Issue                    : mkvmerge v15.0.0 ('Duel with the Devil') 64-bit 2018-01-07 18:32:28 / mkvmerge v15.0.0 ('Duel with the Devil') 64-bit 2018-01-07 18:32:28 / UTC 2018-01-07T06:34:59Z
    FromStats_BitRate                        : 1625
    FromStats_Duration                       : 01:48:55.529000000
    FromStats_FrameCount                     : 110
    FromStats_StreamSize                     : 1328083

    Text #2
    ID                                       : 5
    Format                                   : PGS
    Muxing mode                              : zlib
    Codec ID                                 : S_HDMV/PGS
    Codec ID/Info                            : Picture based subtitle format used on BDs/HD-DVDs
    Language                                 : Spanish
    Default                                  : No
    Forced                                   : No
    Statistics Tags Issue                    : mkvmerge v15.0.0 ('Duel with the Devil') 64-bit 2018-01-07 18:32:28 / mkvmerge v15.0.0 ('Duel with the Devil') 64-bit 2018-01-07 18:32:28 / UTC 2018-01-07T06:34:59Z
    FromStats_BitRate                        : 23036
    FromStats_Duration                       : 01:58:08.207000000
    FromStats_FrameCount                     : 2145
    FromStats_StreamSize                     : 20411377

    Text #3
    ID                                       : 6
    Format                                   : PGS
    Muxing mode                              : zlib
    Codec ID                                 : S_HDMV/PGS
    Codec ID/Info                            : Picture based subtitle format used on BDs/HD-DVDs
    Language                                 : English
    Default                                  : No
    Forced                                   : No
    Statistics Tags Issue                    : mkvmerge v15.0.0 ('Duel with the Devil') 64-bit 2018-01-07 18:32:28 / mkvmerge v15.0.0 ('Duel with the Devil') 64-bit 2018-01-07 18:32:28 / UTC 2018-01-07T06:34:59Z
    FromStats_BitRate                        : 29093
    FromStats_Duration                       : 01:53:18.250000000
    FromStats_FrameCount                     : 2396
    FromStats_StreamSize                     : 24723263

    Menu
    00:00:00.000                             : :Chapter 1
    00:06:23.008                             : :Chapter 2
    00:13:43.072                             : :Chapter 3
    00:20:05.663                             : :Chapter 4
    00:24:21.377                             : :Chapter 5
    00:29:25.264                             : :Chapter 6
    00:33:09.321                             : :Chapter 7
    00:42:17.285                             : :Chapter 8
    00:50:44.124                             : :Chapter 9
    00:55:33.747                             : :Chapter 10
    01:02:19.903                             : :Chapter 11
    01:08:06.457                             : :Chapter 12
    01:12:24.215                             : :Chapter 13
    01:17:31.397                             : :Chapter 14
    01:23:55.489                             : :Chapter 15
    01:29:06.883                             : :Chapter 16
    01:35:45.323                             : :Chapter 17
    01:42:39.028                             : :Chapter 18
    01:50:33.752                             : :Chapter 19
    01:54:23.982                             : :Chapter 20

     

  • Peso: 5.92 GiB

Sinopsis

El Muñeco de Nieve (The Snowman) es un thriller dirigido por Tomas Alfredson (Let the Right One In, Tinker Tailor Soldier Spy) y escrito por Matthew Michael Carnahan y Hossein Amini, basado en la novela homónima escrita por Jo Nesbø. El film es protagonizado por Michael Fassbender, Rebecca Ferguson, Charlotte Gainsbourg, Val Kilmer y J.K. Simmons.

Cuando un detective (Fassbender) investiga la desaparición de una víctima en la primera nevada del invierno, teme que un asesino en serie escurridizo pueda estar activo de nuevo. Con la ayuda de una brillante recluta (Ferguson), el policía debe conectar casos sin resolver de hace décadas con el fin de detener al asesino antes de la próxima nevada

Ficha técnica

Video trailer de la película

Enlaces de descarga

Rip de Bluray

Descargar El muñeco de nieve (2017) Full 1080p Latino




Aportes de DPeliculasHDmega la pass es:dpeliculashdmega.org Aportes de CinemaniaHD la pass es:cinemaniahdd.com

Películas relacionadas

  • Niños del hombre (2006) Full 1080p Latino

    2006
    Niños del hombre (2006) Full 1080p Latino

    0.0 1 h 49 min 2006

    Año 2027: el ser humano está al borde de la extinción: los hombres han perdido la capacidad de procrear...

    Director: Terry Needham

    Género: Acción

    Actores: Yolanda Vazquez

  • Amateur (2018) NF Webrip 1080p Latino

    2018
    Amateur (2018) NF Webrip 1080p Latino

    0.0 1h 36m 2018

    Un joven jugador de baloncesto se enfrenta a las dificultades de encajar en el nuevo equipo. Adaptación...

    Director: Ryan Koo

    Género: Drama

    Actores: Tekola Cornetet

  • Winchester (2018) 1080p Latino

    2018
    Winchester (2018) 1080p Latino

    0.0 1h 39m 2018

    A finales del siglo XIX, después de la trágica muerte de su marido y su hijo, Sarah construye una casa-fortaleza...

    Director: Peter Spierig

    Género: Fantasía

    Actores: Xavier Gouault

  • Unlocked (2017) 1080p Latino

    2017
    Unlocked (2017) 1080p Latino

    3.0 1h 43m 2017

    Gira en torno a una agente de la CIA, especializada en interrogatorios, que es engañada por un sospechoso,...

    Director: Vera Homolacova

    Género: Acción

    Actores: Tosin Cole

Comentarios 2
  • Gerrard - 08 enero, 2018

    Sin enlaces de mega???

    • dpelis - 09 enero, 2018

      agregados.