El Ritual (2017) NF WEB-DL 1080p Latino

1.178 vistas
1 estrella2 estrellas3 estrellas4 estrellas5 estrellas (1 votos, promedio: 4,00 de 5)
Cargando…

Información de El Ritual (2017) NF WEB-DL 1080p Latino

Datos de la película

  • Calidad: WEBDL
  • Audio: Español Latino AC3 5.1 Netflix - Ingles AC3 5.1 Netflix
  • Subtitulos: Español Latino SRT- FORZADOS SRT
  • Resolución: 1920X1080p
  • Formato: MKV
  • Codec: H.264
  • Encoder: Dracarys
  • Mediainfo: Clic para Mostrar Datos Ver
  • Format                                   : Matroska
    Format version                           : Version 4 / Version 2
    File size                                : 3.60 GiB
    Duration                                 : 1 h 34 min
    Overall bit rate mode                    : Variable
    Overall bit rate                         : 5 442 kb/s
    Movie name                               : CinemaniaHDD.com
    Encoded date                             : UTC 2018-02-16 05:45:50
    Writing application                      : mkvmerge v15.0.0 ('Duel with the Devil') 64-bit
    Writing library                          : libebml v1.3.5 + libmatroska v1.4.5

    Video
    ID                                       : 1
    Format                                   : AVC
    Format/Info                              : Advanced Video Codec
    Format profile                           : Main@L4
    Format settings                          : CABAC / 3 Ref Frames
    Format settings, CABAC                   : Yes
    Format settings, RefFrames               : 3 frames
    Codec ID                                 : V_MPEG4/ISO/AVC
    Duration                                 : 1 h 34 min
    Bit rate mode                            : Variable
    Bit rate                                 : 4 640 kb/s
    Maximum bit rate                         : 6 960 kb/s
    Width                                    : 1 920 pixels
    Height                                   : 1 080 pixels
    Display aspect ratio                     : 16:9
    Frame rate mode                          : Constant
    Frame rate                               : 23.976 (24000/1001) FPS
    Color space                              : YUV
    Chroma subsampling                       : 4:2:0
    Bit depth                                : 8 bits
    Scan type                                : Progressive
    Bits/(Pixel*Frame)                       : 0.093
    Stream size                              : 3.05 GiB (85%)
    Title                                    : El Ritual (2017) NF WEB-DL 1080p Latino
    Writing library                          : x264 core 148 r2714 2daf636
    Encoding settings                        : cabac=1 / ref=3 / deblock=1:0:0 / analyse=0x1:0x111 / me=umh / subme=10 / psy=1 / psy_rd=1.00:0.00 / mixed_ref=1 / me_range=24 / chroma_me=1 / trellis=2 / 8x8dct=0 / cqm=0 / deadzone=21,11 / fast_pskip=1 / chroma_qp_offset=-2 / threads=8 / lookahead_threads=1 / sliced_threads=0 / nr=0 / decimate=1 / interlaced=0 / bluray_compat=0 / stitchable=1 / constrained_intra=0 / bframes=2 / b_pyramid=0 / b_adapt=2 / b_bias=0 / direct=3 / weightb=1 / open_gop=0 / weightp=2 / keyint=48 / keyint_min=25 / scenecut=0 / intra_refresh=0 / rc_lookahead=48 / rc=2pass / mbtree=1 / bitrate=4640 / ratetol=1.0 / qcomp=0.50 / qpmin=6 / qpmax=51 / qpstep=4 / cplxblur=20.0 / qblur=0.5 / vbv_maxrate=6960 / vbv_bufsize=9280 / nal_hrd=vbr / filler=0 / ip_ratio=1.40 / aq=1:1.00
    Language                                 : English
    Default                                  : Yes
    Forced                                   : No

    Audio #1
    ID                                       : 2
    Format                                   : AC-3
    Format/Info                              : Audio Coding 3
    Format settings, Endianness              : Big
    Codec ID                                 : A_AC3
    Duration                                 : 1 h 34 min
    Bit rate mode                            : Constant
    Bit rate                                 : 384 kb/s
    Channel(s)                               : 6 channels
    Channel positions                        : Front: L C R, Side: L R, LFE
    Sampling rate                            : 48.0 kHz
    Frame rate                               : 31.250 FPS (1536 SPF)
    Bit depth                                : 16 bits
    Compression mode                         : Lossy
    Stream size                              : 260 MiB (7%)
    Language                                 : Spanish
    Service kind                             : Complete Main
    Default                                  : Yes
    Forced                                   : No

    Audio #2
    ID                                       : 3
    Format                                   : E-AC-3
    Format/Info                              : Enhanced Audio Coding 3
    Format profile                           : E-AC-3+Atmos / E-AC-3
    Format settings, Endianness              : Big
    Codec ID                                 : A_EAC3
    Duration                                 : 1 h 34 min
    Bit rate mode                            : Constant
    Bit rate                                 : 448 kb/s
    Channel(s)                               : 15 objects / 6 channels
    Channel positions                        : 15 objects / Front: L C R, Side: L R, LFE
    Sampling rate                            : 48.0 kHz
    Frame rate                               : 187.500 FPS (256 SPF)
    Compression mode                         : Lossy
    Stream size                              : 302 MiB (8%)
    Language                                 : English
    Service kind                             : Complete Main
    Default                                  : No
    Forced                                   : No

    Text #1
    ID                                       : 4
    Format                                   : UTF-8
    Codec ID                                 : S_TEXT/UTF8
    Codec ID/Info                            : UTF-8 Plain Text
    Duration                                 : 1 h 29 min
    Bit rate                                 : 0 b/s
    Count of elements                        : 5
    Stream size                              : 127 Bytes (0%)
    Title                                    : Forzados
    Language                                 : Spanish
    Default                                  : Yes
    Forced                                   : Yes

    Text #2
    ID                                       : 5
    Format                                   : UTF-8
    Codec ID                                 : S_TEXT/UTF8
    Codec ID/Info                            : UTF-8 Plain Text
    Duration                                 : 1 h 29 min
    Bit rate                                 : 31 b/s
    Count of elements                        : 883
    Stream size                              : 21.0 KiB (0%)
    Language                                 : Spanish
    Default                                  : No
    Forced                                   : No

    Text #3
    ID                                       : 6
    Format                                   : UTF-8
    Codec ID                                 : S_TEXT/UTF8
    Codec ID/Info                            : UTF-8 Plain Text
    Duration                                 : 1 h 29 min
    Bit rate                                 : 53 b/s
    Count of elements                        : 1238
    Stream size                              : 34.8 KiB (0%)
    Title                                    : SDH
    Language                                 : English
    Default                                  : No
    Forced                                   : No

  • Peso: 3.60 GiB

Sinopsis

Un grupo de amigos de la universidad se reúnen para emprender un viaje de senderismo por los montes de Suecia, con la finalidad de rendir homenaje a uno de ellos, muerto de forma violenta. Cuando se internan en el bosque, una presencia amenazante empieza a acosarles.

Ficha técnica

Video trailer de la película

Enlaces de descarga

Rip de Bluray

Descargar El Ritual (2017) NF WEB-DL 1080p Latino




Aportes de DPeliculasHDmega la pass es:dpeliculashdmega.org Aportes de CinemaniaHD la pass es:cinemaniahdd.com
Guardado en : Terror

Películas relacionadas

  • Deep Blue Sea 2 (2018) 1080p Latino

    2018
    Deep Blue Sea 2 (2018) 1080p Latino

    5.0 1h 34m 2018

    La Doctora Misty Calhoun, conservacionista de tiburones, es invitada para asesorar un proyecto secreto...

    Director: Darin Scott

    Género: Acción

    Actores: Rob Mayes

  • La invención de Cronos (1993) Full 1080p Latino

    1993
    La invención de Cronos (1993) Full 1080p Latino

    0.0 1 h 32 min 1993

    Cronos es un artefacto creado por un alquimista medieval, en cuyo interior se encuentra instalado un...

    Director: Guillermo del Toro

    Género: Drama

    Actores: Tamara Shanath

  • Ash vs. Evil Dead (2017) Temporada 3 WEBDL Latino

    2015
    Ash vs. Evil Dead (2017) Temporada 3 WEBDL Latino

    5.0 0h 43m 2015

    Esta temporada 3 seguirá, por tanto, contando con la participación de Lucy Lawless en el papel de la...

    Director: Sam Raimi

    Género: Acción

    Actores: Ray Santiago

Comentarios 3
  • cristian - 16 febrero, 2018

    hola la pelicula van helsing la subirán?

    • Dracarys - 17 febrero, 2018

      pronto

  • Nahuel - 16 febrero, 2018

    Los enlaces de GoogleDrive no se pueden descargar por la cantidad de gente que los bajó.