Fallen (2016) 1080p Latino

3.016 vistas
1 estrella2 estrellas3 estrellas4 estrellas5 estrellas (Ninguna valoración todavía)
Cargando…

Información de Fallen (2016) 1080p Latino

Datos de la película

  • Calidad: 1080p
  • Audio: Español Latino AC3 2.0 DVD - Ingles AC3 5.1 BLURAY
  • Subtitulos: Español Latino SRT - Ingles SRT
  • Resolución: 1920x814p
  • Formato: MKV
  • Codec: H.264
  • Encoder: Dpelis
  • Mediainfo: Clic para Mostrar Datos Ver
  • Fallen.1080p.latino.dpelis.mkv
    Format                      : Matroska
    Format version              : Version 4 / Version 2
    File size                   : 2.54 GiB
    Duration                    : 1 h 31 min
    Overall bit rate            : 3 979 kb/s
    Movie name                  : DPeliculasHDMega.ORG
    Encoded date                : UTC 2017-05-03 21:58:57
    Writing application         : mkvmerge v10.0.0 ('To Drown In You') 64bit
    Writing library             : libebml v1.3.4 + libmatroska v1.4.5

    Video
    ID                          : 1
    Format                      : AVC
    Format/Info                 : Advanced Video Codec
    Format profile              : High@L4.1
    Format settings, CABAC      : Yes
    Format settings, ReFrames   : 4 frames
    Codec ID                    : V_MPEG4/ISO/AVC
    Duration                    : 1 h 31 min
    Bit rate                    : 3 500 kb/s
    Width                       : 1 920 pixels
    Height                      : 814 pixels
    Display aspect ratio        : 2.35:1
    Frame rate mode             : Constant
    Frame rate                  : 23.976 (24000/1001) FPS
    Color space                 : YUV
    Chroma subsampling          : 4:2:0
    Bit depth                   : 8 bits
    Scan type                   : Progressive
    Bits/(Pixel*Frame)          : 0.093
    Stream size                 : 2.17 GiB (85%)
    Writing library             : x264 core 148 r2708 86b7198
    Encoding settings           : cabac=1 / ref=3 / deblock=1:0:0 / analyse=0x3:0x113 / me=hex / subme=7 / psy=1 / psy_rd=1.00:0.00 / mixed_ref=1 / me_range=16 / chroma_me=1 / trellis=1 / 8x8dct=1 / cqm=0 / deadzone=21,11 / fast_pskip=1 / chroma_qp_offset=-2 / threads=12 / lookahead_threads=2 / sliced_threads=0 / nr=0 / decimate=1 / interlaced=0 / bluray_compat=0 / constrained_intra=0 / bframes=3 / b_pyramid=2 / b_adapt=1 / b_bias=0 / direct=1 / weightb=1 / open_gop=0 / weightp=2 / keyint=240 / keyint_min=24 / scenecut=40 / intra_refresh=0 / rc_lookahead=40 / rc=abr / mbtree=1 / bitrate=3500 / ratetol=1.0 / qcomp=0.60 / qpmin=0 / qpmax=69 / qpstep=4 / vbv_maxrate=62500 / vbv_bufsize=78125 / nal_hrd=none / filler=0 / ip_ratio=1.40 / aq=1:1.00
    Default                     : Yes
    Forced                      : No
    Color range                 : Limited
    Color primaries             : BT.709
    Transfer characteristics    : BT.709
    Matrix coefficients         : BT.709

    Audio #1
    ID                          : 2
    Format                      : AC-3
    Format/Info                 : Audio Coding 3
    Format settings, Endianness : Big
    Codec ID                    : A_AC3
    Duration                    : 1 h 31 min
    Bit rate mode               : Constant
    Bit rate                    : 192 kb/s
    Channel(s)                  : 2 channels
    Channel positions           : Front: L R
    Sampling rate               : 48.0 kHz
    Frame rate                  : 31.250 FPS (1536 spf)
    Bit depth                   : 16 bits
    Compression mode            : Lossy
    Delay relative to video     : -5 ms
    Stream size                 : 126 MiB (5%)
    Language                    : Spanish
    Service kind                : Complete Main
    Default                     : Yes
    Forced                      : No

    Audio #2
    ID                          : 3
    Format                      : AC-3
    Format/Info                 : Audio Coding 3
    Format settings, Endianness : Big
    Codec ID                    : A_AC3
    Duration                    : 1 h 31 min
    Bit rate mode               : Constant
    Bit rate                    : 384 kb/s
    Channel(s)                  : 6 channels
    Channel positions           : Front: L C R, Side: L R, LFE
    Sampling rate               : 48.0 kHz
    Frame rate                  : 31.250 FPS (1536 spf)
    Bit depth                   : 16 bits
    Compression mode            : Lossy
    Delay relative to video     : -5 ms
    Stream size                 : 251 MiB (10%)
    Language                    : English
    Service kind                : Complete Main
    Default                     : No
    Forced                      : No

    Text #1
    ID                          : 4
    Format                      : UTF-8
    Codec ID                    : S_TEXT/UTF8
    Codec ID/Info               : UTF-8 Plain Text
    Duration                    : 1 h 25 min
    Bit rate                    : 55 b/s
    Count of elements           : 1216
    Stream size                 : 34.8 KiB (0%)
    Language                    : Spanish
    Default                     : No
    Forced                      : Yes

    Text #2
    ID                          : 5
    Format                      : UTF-8
    Codec ID                    : S_TEXT/UTF8
    Codec ID/Info               : UTF-8 Plain Text
    Duration                    : 1 h 23 min
    Bit rate                    : 53 b/s
    Count of elements           : 1097
    Stream size                 : 32.7 KiB (0%)
    Language                    : English
    Default                     : No
    Forced                      : No

    Text #3
    ID                          : 6
    Format                      : UTF-8
    Codec ID                    : S_TEXT/UTF8
    Codec ID/Info               : UTF-8 Plain Text
    Duration                    : 10 s 100 ms
    Bit rate                    : 91 b/s
    Count of elements           : 1
    Stream size                 : 115 Bytes (0%)
    Language                    : Spanish
    Default                     : Yes
    Forced                      : No

    Menu
    00:00:00.000                : en:00:00:00.000
    00:07:19.606                : en:00:07:19.606
    00:16:57.725                : en:00:16:57.725
    00:23:12.349                : en:00:23:12.349
    00:32:41.626                : en:00:32:41.626
    00:39:28.241                : en:00:39:28.116
    00:47:24.342                : en:00:47:24.341
    00:55:38.293                : en:00:55:38.293
    01:00:34.214                : en:01:00:34.214
    01:10:37.942                : en:01:10:37.942
    01:15:14.885                : en:01:15:14.885
    01:25:35.130                : en:01:25:35.047

  • Peso: 2.54 GB

Sinopsis

Descargar Pelicula Fallen 1080p latino, La novela gira en torno a una joven llamada Lucinda “Luce” Precio es enviado a Sword & Cross (Espada y Cruz), ubicado en un centro de formación en Savannah, Georgia, después de haber sido acusado de matar a su novio fuego en una escuela. Una Espada y Cruz se reunieron Daniel Grigori, un buen tipo que atrae inexplicablemente y cree que conoce a alguna parte. El libro se centra principalmente en el triángulo amoroso entre la Luz, Daniel y Cam, otro niño inscrito en Sword & Cross. Lo que vio en Sword & Cross no es hasta que conoce a Daniel, un hombre de excelentes estudios y Luz cree que hay una razón para estar en Sword & Cross, aunque no sé por qué. Luce y Daniel van a vivir su historia de amor contra el tiempo, Daniel, el más importante de todo el cielo ángel, destinada a caer en el amor de la misma chica cada 17 años y verla morir. La luz es una chica mortal que tiende a reencarnarse una y otra vez, y también tiene ni idea de quién es en realidad.

Ficha técnica

Video trailer de la película

Enlaces de descarga

Rip de Bluray

Descargar Fallen (2016) 1080p Latino




Aportes de DPeliculasHDmega la pass es:dpeliculashdmega.org Aportes de CinemaniaHD la pass es:cinemaniahdd.com
Guardado en : Aventura , Drama , Fantasía , Romance , Suspense

Películas relacionadas

  • Niños del hombre (2006) Full 1080p Latino

    2006
    Niños del hombre (2006) Full 1080p Latino

    0.0 1 h 49 min 2006

    Año 2027: el ser humano está al borde de la extinción: los hombres han perdido la capacidad de procrear...

    Director: Terry Needham

    Género: Acción

    Actores: Yolanda Vazquez

  • Amateur (2018) NF Webrip 1080p Latino

    2018
    Amateur (2018) NF Webrip 1080p Latino

    0.0 1h 36m 2018

    Un joven jugador de baloncesto se enfrenta a las dificultades de encajar en el nuevo equipo. Adaptación...

    Director: Ryan Koo

    Género: Drama

    Actores: Tekola Cornetet

  • Winchester (2018) 1080p Latino

    2018
    Winchester (2018) 1080p Latino

    0.0 1h 39m 2018

    A finales del siglo XIX, después de la trágica muerte de su marido y su hijo, Sarah construye una casa-fortaleza...

    Director: Peter Spierig

    Género: Fantasía

    Actores: Xavier Gouault

  • Unlocked (2017) 1080p Latino

    2017
    Unlocked (2017) 1080p Latino

    3.0 1h 43m 2017

    Gira en torno a una agente de la CIA, especializada en interrogatorios, que es engañada por un sospechoso,...

    Director: Vera Homolacova

    Género: Acción

    Actores: Tosin Cole

Comentarios 2
  • Vivi - 24 mayo, 2017

    Hola queria descargar esta peli pero al pinchar para ver los enlaces en la pagina donde estan me dice Error: El id “523” no existe
    Saludos