Feliz día de tu muerte (2017) Full 1080p Latino

1.947 vistas
1 estrella2 estrellas3 estrellas4 estrellas5 estrellas (1 votos, promedio: 5,00 de 5)
Cargando…

Información de Feliz día de tu muerte (2017) Full 1080p Latino

Datos de la película

  • Calidad: Full 1080p
  • Audio: Español Latino DTS 5.1 BLURAY - Ingles DTS 5.1 BLURAY
  • Subtitulos: Español Latino PGS - Ingles PGS
  • Resolución: 1920X1080p
  • Formato: MKV
  • Codec: H.264
  • Encoder: Dracarys
  • Mediainfo: Clic para Mostrar Datos Ver
  • Format                                   : Matroska
    Format version                           : Version 4 / Version 2
    File size                                : 3.61 GiB
    Duration                                 : 1 h 36 min
    Overall bit rate                         : 5 378 kb/s
    Movie name                               : CinemaniaHDD.com
    Encoded date                             : UTC 2018-01-10 00:23:04 / UTC 2018-01-09T21:25:18Z
    Writing application                      : mkvmerge v15.0.0 ('Duel with the Devil') 64-bit
    Writing library                          : libebml v1.3.5 + libmatroska v1.4.5 / Lavf57.7.2

    Video
    ID                                       : 1
    Format                                   : AVC
    Format/Info                              : Advanced Video Codec
    Format profile                           : High@L4.1
    Format settings                          : CABAC / 4 Ref Frames
    Format settings, CABAC                   : Yes
    Format settings, RefFrames               : 4 frames
    Codec ID                                 : V_MPEG4/ISO/AVC
    Duration                                 : 1 h 36 min
    Bit rate                                 : 2 994 kb/s
    Width                                    : 1 920 pixels
    Height                                   : 1 080 pixels
    Display aspect ratio                     : 16:9
    Frame rate mode                          : Constant
    Frame rate                               : 23.976 (24000/1001) FPS
    Color space                              : YUV
    Chroma subsampling                       : 4:2:0
    Bit depth                                : 8 bits
    Scan type                                : Progressive
    Bits/(Pixel*Frame)                       : 0.060
    Stream size                              : 2.01 GiB (56%)
    Title                                    : Feliz día de tu muerte (2017) Full 1080p Latino
    Writing library                          : x264 core 148 r2708 86b7198
    Encoding settings                        : cabac=1 / ref=4 / deblock=1:0:0 / analyse=0x3:0x133 / me=esa / subme=10 / psy=1 / psy_rd=1.00:0.00 / mixed_ref=1 / me_range=24 / chroma_me=1 / trellis=2 / 8x8dct=1 / cqm=0 / deadzone=21,11 / fast_pskip=1 / chroma_qp_offset=-2 / threads=34 / lookahead_threads=5 / sliced_threads=0 / nr=0 / decimate=1 / interlaced=0 / bluray_compat=0 / constrained_intra=0 / bframes=8 / b_pyramid=2 / b_adapt=2 / b_bias=0 / direct=3 / weightb=1 / open_gop=0 / weightp=2 / keyint=240 / keyint_min=24 / scenecut=40 / intra_refresh=0 / rc_lookahead=60 / rc=crf / mbtree=1 / crf=20.0 / qcomp=0.60 / qpmin=0 / qpmax=69 / qpstep=4 / vbv_maxrate=62500 / vbv_bufsize=78125 / crf_max=0.0 / nal_hrd=none / filler=0 / ip_ratio=1.40 / aq=1:1.00
    Language                                 : English
    Default                                  : Yes
    Forced                                   : No
    Color range                              : Limited
    Color primaries                          : BT.709
    Transfer characteristics                 : BT.709
    Matrix coefficients                      : BT.709
    Statistics Tags Issue                    : mkvmerge v15.0.0 ('Duel with the Devil') 64-bit 2018-01-10 00:23:04 / mkvmerge v15.0.0 ('Duel with the Devil') 64-bit 2018-01-10 00:23:04 / UTC 2018-01-09T21:25:18Z
    FromStats_BitRate                        : 3077027
    FromStats_Duration                       : 01:36:11.391000000
    FromStats_FrameCount                     : 138375
    FromStats_StreamSize                     : 2219841169

    Audio #1
    ID                                       : 2
    Format                                   : DTS
    Format/Info                              : Digital Theater Systems
    Mode                                     : 16
    Format settings, Endianness              : Big
    Codec ID                                 : A_DTS
    Duration                                 : 1 h 36 min
    Bit rate mode                            : Constant
    Bit rate                                 : 768 kb/s
    Channel(s)                               : 6 channels
    Channel positions                        : Front: L C R, Side: L R, LFE
    Sampling rate                            : 48.0 kHz
    Frame rate                               : 93.750 FPS (512 SPF)
    Bit depth                                : 24 bits
    Compression mode                         : Lossy
    Stream size                              : 528 MiB (14%)
    Language                                 : Spanish
    Default                                  : Yes
    Forced                                   : No
    Statistics Tags Issue                    : mkvmerge v15.0.0 ('Duel with the Devil') 64-bit 2018-01-10 00:23:04 / mkvmerge v15.0.0 ('Duel with the Devil') 64-bit 2018-01-10 00:23:04 / UTC 2018-01-09T21:25:18Z
    FromStats_BitRate                        : 768000
    FromStats_Duration                       : 01:36:11.392000000
    FromStats_FrameCount                     : 541068
    FromStats_StreamSize                     : 554053632

    Audio #2
    ID                                       : 3
    Format                                   : DTS
    Format/Info                              : Digital Theater Systems
    Mode                                     : 16
    Format settings, Endianness              : Big
    Codec ID                                 : A_DTS
    Duration                                 : 1 h 36 min
    Bit rate mode                            : Constant
    Bit rate                                 : 1 509 kb/s
    Channel(s)                               : 6 channels
    Channel positions                        : Front: L C R, Side: L R, LFE
    Sampling rate                            : 48.0 kHz
    Frame rate                               : 93.750 FPS (512 SPF)
    Bit depth                                : 24 bits
    Compression mode                         : Lossy
    Stream size                              : 1.01 GiB (28%)
    Language                                 : English
    Default                                  : No
    Forced                                   : No
    Statistics Tags Issue                    : mkvmerge v15.0.0 ('Duel with the Devil') 64-bit 2018-01-10 00:23:04 / mkvmerge v15.0.0 ('Duel with the Devil') 64-bit 2018-01-10 00:23:04 / UTC 2018-01-09T21:25:18Z
    FromStats_BitRate                        : 1509000
    FromStats_Duration                       : 01:36:11.392000000
    FromStats_FrameCount                     : 541068
    FromStats_StreamSize                     : 1088628816

    Text #1
    ID                                       : 4
    Format                                   : PGS
    Muxing mode                              : zlib
    Codec ID                                 : S_HDMV/PGS
    Codec ID/Info                            : Picture based subtitle format used on BDs/HD-DVDs
    Language                                 : English
    Default                                  : No
    Forced                                   : No
    Statistics Tags Issue                    : mkvmerge v15.0.0 ('Duel with the Devil') 64-bit 2018-01-10 00:23:04 / mkvmerge v15.0.0 ('Duel with the Devil') 64-bit 2018-01-10 00:23:04 / UTC 2018-01-09T21:25:18Z
    FromStats_BitRate                        : 40179
    FromStats_Duration                       : 01:29:02.754000000
    FromStats_FrameCount                     : 2894
    FromStats_StreamSize                     : 26833668

    Text #2
    ID                                       : 5
    Format                                   : PGS
    Muxing mode                              : zlib
    Codec ID                                 : S_HDMV/PGS
    Codec ID/Info                            : Picture based subtitle format used on BDs/HD-DVDs
    Language                                 : Spanish
    Default                                  : No
    Forced                                   : No
    Statistics Tags Issue                    : mkvmerge v15.0.0 ('Duel with the Devil') 64-bit 2018-01-10 00:23:04 / mkvmerge v15.0.0 ('Duel with the Devil') 64-bit 2018-01-10 00:23:04 / UTC 2018-01-09T21:25:18Z
    FromStats_BitRate                        : 27365
    FromStats_Duration                       : 01:34:53.646000000
    FromStats_FrameCount                     : 2332
    FromStats_StreamSize                     : 19476281

    Menu
    00:00:00.000                             : :Chapter 1
    00:04:54.461                             : :Chapter 2
    00:10:26.000                             : :Chapter 3
    00:14:10.683                             : :Chapter 4
    00:21:46.722                             : :Chapter 5
    00:25:08.799                             : :Chapter 6
    00:29:37.859                             : :Chapter 7
    00:33:09.321                             : :Chapter 8
    00:37:50.143                             : :Chapter 9
    00:41:46.170                             : :Chapter 10
    00:44:54.192                             : :Chapter 11
    00:53:07.935                             : :Chapter 12
    00:57:28.445                             : :Chapter 13
    01:00:18.448                             : :Chapter 14
    01:07:41.558                             : :Chapter 15
    01:12:16.290                             : :Chapter 16
    01:16:35.091                             : :Chapter 17
    01:21:17.206                             : :Chapter 18
    01:27:13.645                             : :Chapter 19
    01:30:24.169                             : :Chapter 20

     

  • Peso: 3.61 GiB

Sinopsis

Tree Gelbman (Jessica Rothe) es una estudiante universitaria que debe revivir el día de su asesinato una y otra vez. Este bucle infinito solo terminará cuando la joven descubra la identidad de su asesino. En esta terrible misión, la estudiante estará acompañada por su amigo Carter (Israel Broussard). Claro que, conforme pasa el tiempo y van sucediéndose sus propias muertes, la psicología de Tree irá haciéndose más y más compleja.

Este filme de terror lo dirige Christopher Landon, responsable de los guiones de cuatro películas de Paranormal Activity. El reparto protagonista está formado por Jessica Rothe (La ciudad de las estrellas – La La Land), Israel Broussard (Fear the Walking Dead), Charles Aitken (The Knick) y Ruby Modine (Central Park).

Ficha técnica

Video trailer de la película

Enlaces de descarga

Rip de Bluray

Descargar Feliz día de tu muerte (2017) Full 1080p Latino




Aportes de DPeliculasHDmega la pass es:dpeliculashdmega.org Aportes de CinemaniaHD la pass es:cinemaniahdd.com
Guardado en : FULL 1080p Plateadas , Terror

Películas relacionadas

  • Mamá de alquiler (2008) Full 1080p Latino

    2008
    Mamá de alquiler (2008) Full 1080p Latino

    0.0 33h 28m 2008

    Una brillante mujer de negocios sueña con tener un hijo, pero descubre que no es fértil, por lo que...

    Director: Michael McCullers

    Género: Comedia

    Actores: Will Forte

  • La telaraña de Charlotte (2006) Full 1080p Latino

    2006
    La telaraña de Charlotte (2006) Full 1080p Latino

    0.0 1 h 36 min 2006

    Wilbur, un cerdito que vive en una granja, se entera de que su posible destino final es acabar en el...

    Director: Gary Winick

    Género: Comedia

    Actores: Thomas Haden Church

  • Australia (2008) Full 1080p Latino

    2008
    Australia (2008) Full 1080p Latino

    0.0 2 h 45 min 2008

    Lady Sarah Ashley (Nicole Kidman), una aristócrata inglesa, se ha pasado la vida persiguiendo la perfección...

    Director: Sophie Fabbri-Jackson

    Género: Aventura

    Actores: Yuen Wah

  • Guardianes de la Noche (2004) Full 1080p Latino

    2004
    Guardianes de la Noche (2004) Full 1080p Latino

    5.0 1 h 54 min 2004

    Al caer la noche, las fuerzas de la oscuridad combaten a los “Otros”, sobrehumanos, Guardianes de...

    Director: Timur Bekmambetov

    Género: Acción

    Actores: Zhanna Friske

Comentarios 6
  • GULOCETA - 14 enero, 2018

    LA MEJOR PAGINA PARA VER PELICULAS SPam

    • dpelis - 14 enero, 2018

      es la mejor pagina en robar contenido, todo nos roba y publica aya, deja de publicar esa pagina, que roba todo los estrenos de aqui, saludos

  • Brian - 10 enero, 2018

    Hola me da error de extraccion y eso que pongo bien la pass. saludos

    • dpelis - 11 enero, 2018

      debe reparar el rar danado. tiene recuperacion

      • Brian - 11 enero, 2018

        Probe eso, pero los archivos de recuperacion me aparecen vacios

        • dpelis - 12 enero, 2018

          rar bueno, debe estar ingresando mal la pass