Goodbye Christopher Robin (2017) WEB-DL 1080p Latino

807 vistas
1 estrella2 estrellas3 estrellas4 estrellas5 estrellas (Ninguna valoración todavía)
Cargando…

Información de Goodbye Christopher Robin (2017) WEB-DL 1080p Latino

Datos de la película

  • Calidad: WEBDL
  • Audio: Español Latino AC3 5.1 iTunes - Ingles AC3 5.1 iTunes
  • Subtitulos: Español Latino SRT- FORZADOS SRT
  • Resolución: 1920X1036
  • Formato: MKV
  • Codec: H.264
  • Encoder: CinemaniaHD
  • Mediainfo: Clic para Mostrar Datos Ver
  • Format                                   : Matroska
    Format version                           : Version 4 / Version 2
    File size                                : 4.41 GiB
    Duration                                 : 1 h 47 min
    Overall bit rate                         : 5 886 kb/s
    Movie name                               : CinemaniaHDD.com
    Encoded date                             : UTC 2018-01-05 20:53:42
    Writing application                      : mkvmerge v15.0.0 ('Duel with the Devil') 64-bit
    Writing library                          : libebml v1.3.5 + libmatroska v1.4.5

    Video
    ID                                       : 1
    Format                                   : AVC
    Format/Info                              : Advanced Video Codec
    Format profile                           : High@L4
    Format settings                          : CABAC / 4 Ref Frames
    Format settings, CABAC                   : Yes
    Format settings, RefFrames               : 4 frames
    Codec ID                                 : V_MPEG4/ISO/AVC
    Duration                                 : 1 h 47 min
    Bit rate                                 : 5 118 kb/s
    Width                                    : 1 920 pixels
    Height                                   : 1 036 pixels
    Display aspect ratio                     : 1.85:1
    Frame rate mode                          : Constant
    Frame rate                               : 23.976 FPS
    Color space                              : YUV
    Chroma subsampling                       : 4:2:0
    Bit depth                                : 8 bits
    Scan type                                : Progressive
    Bits/(Pixel*Frame)                       : 0.107
    Stream size                              : 3.83 GiB (87%)
    Title                                    : Goodbye Christopher Robin (2017) WEB-DL 1080p Latino
    Language                                 : English
    Default                                  : Yes
    Forced                                   : No
    Color range                              : Limited
    Color primaries                          : BT.709
    Transfer characteristics                 : BT.709
    Matrix coefficients                      : BT.709

    Audio #1
    ID                                       : 2
    Format                                   : AC-3
    Format/Info                              : Audio Coding 3
    Format settings, Endianness              : Big
    Codec ID                                 : A_AC3
    Duration                                 : 1 h 46 min
    Bit rate mode                            : Constant
    Bit rate                                 : 384 kb/s
    Channel(s)                               : 6 channels
    Channel positions                        : Front: L C R, Side: L R, LFE
    Sampling rate                            : 48.0 kHz
    Frame rate                               : 31.250 FPS (1536 SPF)
    Bit depth                                : 16 bits
    Compression mode                         : Lossy
    Stream size                              : 294 MiB (7%)
    Language                                 : Spanish
    Service kind                             : Complete Main
    Default                                  : Yes
    Forced                                   : No

    Audio #2
    ID                                       : 3
    Format                                   : AC-3
    Format/Info                              : Audio Coding 3
    Format settings, Endianness              : Big
    Codec ID                                 : A_AC3
    Duration                                 : 1 h 46 min
    Bit rate mode                            : Constant
    Bit rate                                 : 384 kb/s
    Channel(s)                               : 6 channels
    Channel positions                        : Front: L C R, Side: L R, LFE
    Sampling rate                            : 48.0 kHz
    Frame rate                               : 31.250 FPS (1536 SPF)
    Bit depth                                : 16 bits
    Compression mode                         : Lossy
    Stream size                              : 294 MiB (7%)
    Language                                 : English
    Service kind                             : Complete Main
    Default                                  : No
    Forced                                   : No

    Text #1
    ID                                       : 4
    Format                                   : UTF-8
    Codec ID                                 : S_TEXT/UTF8
    Codec ID/Info                            : UTF-8 Plain Text
    Duration                                 : 1 h 45 min
    Bit rate                                 : 1 b/s
    Count of elements                        : 18
    Stream size                              : 905 Bytes (0%)
    Title                                    : Forzados
    Language                                 : Swedish
    Default                                  : Yes
    Forced                                   : No

    Text #2
    ID                                       : 5
    Format                                   : UTF-8
    Codec ID                                 : S_TEXT/UTF8
    Codec ID/Info                            : UTF-8 Plain Text
    Duration                                 : 1 h 45 min
    Bit rate                                 : 63 b/s
    Count of elements                        : 1413
    Stream size                              : 48.8 KiB (0%)
    Language                                 : Spanish
    Default                                  : No
    Forced                                   : No

    Menu
    00:00:00.000                             : en:1
    00:04:03.952                             : en:2
    00:07:01.169                             : en:3
    00:10:32.630                             : en:4
    00:13:40.525                             : en:5
    00:16:48.588                             : en:6
    00:20:43.405                             : en:7
    00:25:44.789                             : en:8
    00:30:36.747                             : en:9
    00:35:25.576                             : en:10
    00:40:50.733                             : en:11
    00:48:22.100                             : en:12
    00:52:32.725                             : en:13
    00:57:53.587                             : en:14
    01:03:35.804                             : en:15
    01:07:38.505                             : en:16
    01:12:43.852                             : en:17
    01:18:55.723                             : en:18
    01:21:45.600                             : en:19
    01:25:16.643                             : en:20
    01:29:10.417                             : en:21
    01:32:27.905                             : en:22
    01:35:55.903                             : en:23
    01:41:03.252                             : en:24

     

  • Peso: 4.41 GiB

Sinopsis

Una mirada a la relación del alabado escritor para niños A. A. Milne (Domhnall Gleeson) y su hijo Christopher Robin (Will Tilston), cuyos juguetes inspiraron el mundo mágico de Winnie the Pooh. Junto a su madre Daphne (Margot Robbie) y su cuidadora Olive, Christopher Robin y su familia se verán arrollados por el éxito internacional de los libros.

Ficha técnica

  • Titulo original: Goodbye Christopher Robin
  • Fecha de lanzamiento: 29-09-2017 (United States of America)
  • Director: Simon Curtis
  • Género: Familia, Historia
  • Puntuación: 0.0 0 votos
  • Duración:
    0h 0m

Video trailer de la película

Enlaces de descarga

Rip de Bluray

Descargar Goodbye Christopher Robin (2017) WEB-DL 1080p Latino




Aportes de DPeliculasHDmega la pass es:dpeliculashdmega.org Aportes de CinemaniaHD la pass es:cinemaniahdd.com
Guardado en : Familia , Historia

Películas relacionadas

  • Marley y yo (2008) Full 1080p Latino

    2008
    Marley y yo (2008) Full 1080p Latino

    5.0 1 h 55 min 2008

    Los recién casados John y Jenny Grogan deciden dejar atrás los duros inviernos de Michigan para instalarse...

    Director: Sheila Waldron

    Género: Comedia

    Actores: Zabryna Guevara

  • Peter Rabbit (2018) 1080p Latino

    2018
    Peter Rabbit (2018) 1080p Latino

    5.0 1h 35m 2018

    Peter Rabbit no es un conejo cualquiera. Es un rebelde travieso y aventurero que viste camisa azul y...

    Director: Will Gluck

    Género: Animación

    Actores: Will Reichelt

  • El guardián del zoológico (2011) Full 1080p Latino

    2011
    El guardián del zoológico (2011) Full 1080p Latino

    5.0 1 h 41 min 2011

    El solitario cuidador de un zoológico (Kevin James) quiere abandonar su trabajo porque es incapaz de...

    Director: Frank Coraci

    Género: Comedia

    Actores: Thomas Gottschalk

  • Aliens Ate My Homework (2018) 1080p NF Latino

    2018
    Aliens Ate My Homework (2018) 1080p NF Latino

    4.0 1h 30m 2018

    Los extraterrestres invaden la Tierra y un par de estudiantes de secundaria sostienen el destino del...

    Director: Sean McNamara

    Género: Aventura

    Actores: William Shatner

Comentarios 0