Gravity (2013) Full 1080p Latino

877 vistas
1 estrella2 estrellas3 estrellas4 estrellas5 estrellas (1 votos, promedio: 5,00 de 5)
Cargando…

Información de Gravity (2013) Full 1080p Latino

Datos de la película

  • Calidad: Full 1080p
  • Audio: Español Latino AC3 5.1 BLURAY - Ingles DTS 5.1 BLURAY
  • Subtitulos: Español Latino PGS - Ingles PGS
  • Resolución: 1920X1080
  • Formato: MKV
  • Codec: H.264
  • Encoder: Dpelis
  • Mediainfo: Clic para Mostrar Datos Ver
  • Format                                   : Matroska
    Format version                           : Version 4 / Version 2
    File size                                : 4.92 GiB
    Duration                                 : 1 h 30 min
    Overall bit rate                         : 7 749 kb/s
    Movie name                               : dpeliculashdmega.org
    Encoded date                             : UTC 2017-11-08 01:56:38 / UTC 2017-11-07T18:20:05Z
    Writing application                      : mkvmerge v15.0.0 ('Duel with the Devil') 64-bit
    Writing library                          : libebml v1.3.5 + libmatroska v1.4.5 / Lavf57.7.2

    Video
    ID                                       : 1
    Format                                   : AVC
    Format/Info                              : Advanced Video Codec
    Format profile                           : [email protected]
    Format settings                          : CABAC / 4 Ref Frames
    Format settings, CABAC                   : Yes
    Format settings, RefFrames               : 4 frames
    Codec ID                                 : V_MPEG4/ISO/AVC
    Duration                                 : 1 h 30 min
    Bit rate                                 : 5 702 kb/s
    Width                                    : 1 920 pixels
    Height                                   : 1 080 pixels
    Display aspect ratio                     : 16:9
    Frame rate mode                          : Constant
    Frame rate                               : 23.976 (24000/1001) FPS
    Color space                              : YUV
    Chroma subsampling                       : 4:2:0
    Bit depth                                : 8 bits
    Scan type                                : Progressive
    Bits/(Pixel*Frame)                       : 0.115
    Stream size                              : 3.62 GiB (74%)
    Title                                    : Gravity (2013) Full 1080p Latino
    Writing library                          : x264 core 148 r2708 86b7198
    Encoding settings                        : cabac=1 / ref=4 / deblock=1:0:0 / analyse=0x3:0x133 / me=esa / subme=10 / psy=1 / psy_rd=1.00:0.00 / mixed_ref=1 / me_range=24 / chroma_me=1 / trellis=2 / 8x8dct=1 / cqm=0 / deadzone=21,11 / fast_pskip=1 / chroma_qp_offset=-2 / threads=34 / lookahead_threads=5 / sliced_threads=0 / nr=0 / decimate=1 / interlaced=0 / bluray_compat=0 / constrained_intra=0 / bframes=8 / b_pyramid=2 / b_adapt=2 / b_bias=0 / direct=3 / weightb=1 / open_gop=0 / weightp=2 / keyint=240 / keyint_min=24 / scenecut=40 / intra_refresh=0 / rc_lookahead=60 / rc=crf / mbtree=1 / crf=20.0 / qcomp=0.60 / qpmin=0 / qpmax=69 / qpstep=4 / vbv_maxrate=62500 / vbv_bufsize=78125 / crf_max=0.0 / nal_hrd=none / filler=0 / ip_ratio=1.40 / aq=1:1.00
    Language                                 : English
    Default                                  : Yes
    Forced                                   : No
    Color range                              : Limited
    Color primaries                          : BT.709
    Transfer characteristics                 : BT.709
    Matrix coefficients                      : BT.709
    Statistics Tags Issue                    : mkvmerge v15.0.0 ('Duel with the Devil') 64-bit 2017-11-08 01:56:38 / mkvmerge v15.0.0 ('Duel with the Devil') 64-bit 2017-11-08 01:56:38 / UTC 2017-11-07T18:20:05Z
    FromStats_BitRate                        : 5829610
    FromStats_Duration                       : 01:30:58.495000000
    FromStats_FrameCount                     : 130873
    FromStats_StreamSize                     : 3977612364

    Audio #1
    ID                                       : 2
    Format                                   : AC-3
    Format/Info                              : Audio Coding 3
    Format settings, Endianness              : Big
    Codec ID                                 : A_AC3
    Duration                                 : 1 h 30 min
    Bit rate mode                            : Constant
    Bit rate                                 : 384 kb/s
    Channel(s)                               : 6 channels
    Channel positions                        : Front: L C R, Side: L R, LFE
    Sampling rate                            : 48.0 kHz
    Frame rate                               : 31.250 FPS (1536 SPF)
    Bit depth                                : 16 bits
    Compression mode                         : Lossy
    Stream size                              : 250 MiB (5%)
    Title                                    : Latino-AC3
    Language                                 : Spanish
    Service kind                             : Complete Main
    Default                                  : Yes
    Forced                                   : No
    Statistics Tags Issue                    : mkvmerge v15.0.0 ('Duel with the Devil') 64-bit 2017-11-08 01:56:38 / mkvmerge v15.0.0 ('Duel with the Devil') 64-bit 2017-11-08 01:56:38 / UTC 2017-11-07T18:20:05Z
    FromStats_BitRate                        : 384000
    FromStats_Duration                       : 01:30:57.408000000
    FromStats_FrameCount                     : 170544
    FromStats_StreamSize                     : 261955584

    Audio #2
    ID                                       : 3
    Format                                   : DTS
    Format/Info                              : Digital Theater Systems
    Mode                                     : 16
    Format settings, Endianness              : Big
    Codec ID                                 : A_DTS
    Duration                                 : 1 h 30 min
    Bit rate mode                            : Constant
    Bit rate                                 : 1 509 kb/s
    Channel(s)                               : 6 channels
    Channel positions                        : Front: L C R, Side: L R, LFE
    Sampling rate                            : 48.0 kHz
    Frame rate                               : 93.750 FPS (512 SPF)
    Bit depth                                : 24 bits
    Compression mode                         : Lossy
    Stream size                              : 982 MiB (19%)
    Title                                    : Ingles-DTS
    Language                                 : English
    Default                                  : No
    Forced                                   : No
    Statistics Tags Issue                    : mkvmerge v15.0.0 ('Duel with the Devil') 64-bit 2017-11-08 01:56:38 / mkvmerge v15.0.0 ('Duel with the Devil') 64-bit 2017-11-08 01:56:38 / UTC 2017-11-07T18:20:05Z
    FromStats_BitRate                        : 1509000
    FromStats_Duration                       : 01:30:58.496000000
    FromStats_FrameCount                     : 511734
    FromStats_StreamSize                     : 1029608808

    Text #1
    ID                                       : 4
    Format                                   : PGS
    Muxing mode                              : zlib
    Codec ID                                 : S_HDMV/PGS
    Codec ID/Info                            : Picture based subtitle format used on BDs/HD-DVDs
    Language                                 : English
    Default                                  : No
    Forced                                   : No
    Statistics Tags Issue                    : mkvmerge v15.0.0 ('Duel with the Devil') 64-bit 2017-11-08 01:56:38 / mkvmerge v15.0.0 ('Duel with the Devil') 64-bit 2017-11-08 01:56:38 / UTC 2017-11-07T18:20:05Z
    FromStats_BitRate                        : 28618
    FromStats_Duration                       : 01:29:50.093000000
    FromStats_FrameCount                     : 1999
    FromStats_StreamSize                     : 19281844

    Text #2
    ID                                       : 5
    Format                                   : PGS
    Muxing mode                              : zlib
    Codec ID                                 : S_HDMV/PGS
    Codec ID/Info                            : Picture based subtitle format used on BDs/HD-DVDs
    Language                                 : Spanish
    Default                                  : No
    Forced                                   : No
    Statistics Tags Issue                    : mkvmerge v15.0.0 ('Duel with the Devil') 64-bit 2017-11-08 01:56:38 / mkvmerge v15.0.0 ('Duel with the Devil') 64-bit 2017-11-08 01:56:38 / UTC 2017-11-07T18:20:05Z
    FromStats_BitRate                        : 23896
    FromStats_Duration                       : 01:30:40.435000000
    FromStats_FrameCount                     : 1746
    FromStats_StreamSize                     : 16250778

    Menu
    00:00:00.000                             : :Beginning
    00:13:08.830                             : :Detached
    00:21:33.542                             : :Back to Explorer
    00:29:12.668                             : :Aiming for ISS
    00:39:59.856                             : :Inside of ISS
    00:48:49.051                             : :Stuck on a parachute
    00:57:00.667                             : :Mayday
    01:08:08.418                             : :You're my last ride
    01:15:27.148                             : :One hell of a ride
    01:23:50.567                             : :End credits

  • Peso: 4.92 GiB

Sinopsis

Durante un paseo espacial rutinario, dos astronautas sufren un grave accidente y quedan flotando en el espacio. Una es la doctora Ryan Stone, una brillante ingeniera en su primera misión espacial en la Shuttle. Su acompañante es el veterano astronauta Matt Kowalsky. Durante el paseo algo sale mal y ocurre el desastre: el shuttle queda destrozado, dejando a Ryan y Matt completamente solos, momento a partir del cual intentarán por todos los medios volver a la Tierra.

Ficha técnica

Video trailer de la película

Enlaces de descarga

Descargar Gravity (2013) Full 1080p Latino

dpeliculas

Aportes de DPeliculasHDmega la pass es:dpeliculashdmega.org Aportes de CinemaniaHD la pass es:cinemaniahdd.com

Películas relacionadas

  • Saw VIII (Jigsaw) (2017) 4K HDR Latino

    2017
    Saw VIII (Jigsaw) (2017) 4K HDR Latino

    5.0 1 h 31 min 2017

    ¿Estaremos más cerca de conocer el desenlace de los macabros planes ideados por Jigsaw? Octava entrega...

    Director: Simon Board

    Género: 4K HDR

    Actores: Tobin Bell

  • First Kill (2017) 1080p Latino

    2017
    First Kill (2017) 1080p Latino

    0.0 1h 37m 2017

    El joven padre Will (Hayden Christensen) lleva a su familia en de viaje a una cabaña en el bosque. Por...

    Director: Steven C. Miller

    Género: Acción

    Actores: William DeMeo

  • Interstellar (2014) IMAX 4K HDR Latino

    2014
    Interstellar (2014) IMAX 4K HDR Latino

    0.0 2 h 49 min 2014

    Narra las aventuras de un grupo de exploradores que hacen uso de un agujero de gusano recientemente descubierto...

    Director: Christopher Nolan

    Género: 4K HDR

    Actores: William Patrick Brown

  • Battleship (2012) 4K HDR Latino

    2012
    Battleship (2012) 4K HDR Latino

    0.0 2h 11m 2012

    “Battleship” es la libre adaptación al cine del popular juego de mesa de Hasbro conocido como “Hundir...

    Director: Peter Berg

    Género: 4K HDR

    Actores: Yutaka Takeuchi

Comentarios 0