Hasta pronto Christopher Robin (2017) Full 1080p Latino

1.288 vistas
1 estrella2 estrellas3 estrellas4 estrellas5 estrellas (Ninguna valoración todavía)
Cargando…

Información de Hasta pronto Christopher Robin (2017) Full 1080p Latino

Datos de la película

  • Calidad: Full 1080p
  • Audio: Español Latino AC3 5.1 BLURAY - Ingles DTS 5.1 BLURAY
  • Subtitulos: Español Latino PGS - Ingles PGS
  • Resolución: 1920X1080p
  • Formato: MKV
  • Codec: H.264
  • Encoder: Dracarys
  • Mediainfo: Clic para Mostrar Datos Ver
  • Format                                   : Matroska
    Format version                           : Version 4 / Version 2
    File size                                : 6.16 GiB
    Duration                                 : 1 h 47 min
    Overall bit rate                         : 8 243 kb/s
    Movie name                               : CinemaniaHDD.com
    Encoded date                             : UTC 2018-01-13 10:03:30 / UTC 2018-01-13T05:00:08Z
    Writing application                      : mkvmerge v15.0.0 ('Duel with the Devil') 64-bit
    Writing library                          : libebml v1.3.5 + libmatroska v1.4.5 / Lavf57.7.2

    Video
    ID                                       : 1
    Format                                   : AVC
    Format/Info                              : Advanced Video Codec
    Format profile                           : High@L4.1
    Format settings                          : CABAC / 4 Ref Frames
    Format settings, CABAC                   : Yes
    Format settings, RefFrames               : 4 frames
    Codec ID                                 : V_MPEG4/ISO/AVC
    Duration                                 : 1 h 47 min
    Bit rate                                 : 6 122 kb/s
    Width                                    : 1 920 pixels
    Height                                   : 1 080 pixels
    Display aspect ratio                     : 16:9
    Frame rate mode                          : Constant
    Frame rate                               : 23.976 (24000/1001) FPS
    Color space                              : YUV
    Chroma subsampling                       : 4:2:0
    Bit depth                                : 8 bits
    Scan type                                : Progressive
    Bits/(Pixel*Frame)                       : 0.123
    Stream size                              : 4.58 GiB (74%)
    Title                                    : Hasta pronto Christopher Robin (2017) Full 1080p Latino
    Writing library                          : x264 core 148 r2708 86b7198
    Encoding settings                        : cabac=1 / ref=4 / deblock=1:0:0 / analyse=0x3:0x133 / me=esa / subme=10 / psy=1 / psy_rd=1.00:0.00 / mixed_ref=1 / me_range=24 / chroma_me=1 / trellis=2 / 8x8dct=1 / cqm=0 / deadzone=21,11 / fast_pskip=1 / chroma_qp_offset=-2 / threads=34 / lookahead_threads=5 / sliced_threads=0 / nr=0 / decimate=1 / interlaced=0 / bluray_compat=0 / constrained_intra=0 / bframes=8 / b_pyramid=2 / b_adapt=2 / b_bias=0 / direct=3 / weightb=1 / open_gop=0 / weightp=2 / keyint=240 / keyint_min=24 / scenecut=40 / intra_refresh=0 / rc_lookahead=60 / rc=crf / mbtree=1 / crf=20.0 / qcomp=0.60 / qpmin=0 / qpmax=69 / qpstep=4 / vbv_maxrate=62500 / vbv_bufsize=78125 / crf_max=0.0 / nal_hrd=none / filler=0 / ip_ratio=1.40 / aq=1:1.00
    Language                                 : English
    Default                                  : Yes
    Forced                                   : No
    Color range                              : Limited
    Color primaries                          : BT.709
    Transfer characteristics                 : BT.709
    Matrix coefficients                      : BT.709
    Statistics Tags Issue                    : mkvmerge v15.0.0 ('Duel with the Devil') 64-bit 2018-01-13 10:03:30 / mkvmerge v15.0.0 ('Duel with the Devil') 64-bit 2018-01-13 10:03:30 / UTC 2018-01-13T05:00:08Z
    FromStats_BitRate                        : 6258472
    FromStats_Duration                       : 01:47:00.623000000
    FromStats_FrameCount                     : 153941
    FromStats_StreamSize                     : 5022911774

    Audio #1
    ID                                       : 2
    Format                                   : AC-3
    Format/Info                              : Audio Coding 3
    Format settings, Endianness              : Big
    Codec ID                                 : A_AC3
    Duration                                 : 1 h 47 min
    Bit rate mode                            : Constant
    Bit rate                                 : 448 kb/s
    Channel(s)                               : 6 channels
    Channel positions                        : Front: L C R, Side: L R, LFE
    Sampling rate                            : 48.0 kHz
    Frame rate                               : 31.250 FPS (1536 SPF)
    Bit depth                                : 16 bits
    Compression mode                         : Lossy
    Stream size                              : 343 MiB (5%)
    Language                                 : Spanish
    Service kind                             : Complete Main
    Default                                  : Yes
    Forced                                   : No
    Statistics Tags Issue                    : mkvmerge v15.0.0 ('Duel with the Devil') 64-bit 2018-01-13 10:03:30 / mkvmerge v15.0.0 ('Duel with the Devil') 64-bit 2018-01-13 10:03:30 / UTC 2018-01-13T05:00:08Z
    FromStats_BitRate                        : 448000
    FromStats_Duration                       : 01:47:00.672000000
    FromStats_FrameCount                     : 200646
    FromStats_StreamSize                     : 359557632

    Audio #2
    ID                                       : 3
    Format                                   : DTS
    Format/Info                              : Digital Theater Systems
    Mode                                     : 16
    Format settings, Endianness              : Big
    Codec ID                                 : A_DTS
    Duration                                 : 1 h 47 min
    Bit rate mode                            : Constant
    Bit rate                                 : 1 509 kb/s
    Channel(s)                               : 6 channels
    Channel positions                        : Front: L C R, Side: L R, LFE
    Sampling rate                            : 48.0 kHz
    Frame rate                               : 93.750 FPS (512 SPF)
    Bit depth                                : 24 bits
    Compression mode                         : Lossy
    Stream size                              : 1.13 GiB (18%)
    Language                                 : English
    Default                                  : No
    Forced                                   : No
    Statistics Tags Issue                    : mkvmerge v15.0.0 ('Duel with the Devil') 64-bit 2018-01-13 10:03:30 / mkvmerge v15.0.0 ('Duel with the Devil') 64-bit 2018-01-13 10:03:30 / UTC 2018-01-13T05:00:08Z
    FromStats_BitRate                        : 1508999
    FromStats_Duration                       : 01:47:00.662000000
    FromStats_FrameCount                     : 601937
    FromStats_StreamSize                     : 1211097244

    Text #1
    ID                                       : 4
    Format                                   : PGS
    Muxing mode                              : zlib
    Codec ID                                 : S_HDMV/PGS
    Codec ID/Info                            : Picture based subtitle format used on BDs/HD-DVDs
    Language                                 : English
    Default                                  : No
    Forced                                   : No
    Statistics Tags Issue                    : mkvmerge v15.0.0 ('Duel with the Devil') 64-bit 2018-01-13 10:03:30 / mkvmerge v15.0.0 ('Duel with the Devil') 64-bit 2018-01-13 10:03:30 / UTC 2018-01-13T05:00:08Z
    FromStats_BitRate                        : 47051
    FromStats_Duration                       : 01:40:17.929000000
    FromStats_FrameCount                     : 3578
    FromStats_StreamSize                     : 35393993

    Text #2
    ID                                       : 5
    Format                                   : PGS
    Muxing mode                              : zlib
    Codec ID                                 : S_HDMV/PGS
    Codec ID/Info                            : Picture based subtitle format used on BDs/HD-DVDs
    Language                                 : Spanish
    Default                                  : No
    Forced                                   : No
    Statistics Tags Issue                    : mkvmerge v15.0.0 ('Duel with the Devil') 64-bit 2018-01-13 10:03:30 / mkvmerge v15.0.0 ('Duel with the Devil') 64-bit 2018-01-13 10:03:30 / UTC 2018-01-13T05:00:08Z
    FromStats_BitRate                        : 36668
    FromStats_Duration                       : 01:45:46.465000000
    FromStats_FrameCount                     : 2826
    FromStats_StreamSize                     : 29089460

    Menu
    00:00:00.000                             : :Chapter 1
    00:04:03.952                             : :Chapter 2
    00:07:01.171                             : :Chapter 3
    00:10:32.632                             : :Chapter 4
    00:13:40.528                             : :Chapter 5
    00:16:48.591                             : :Chapter 6
    00:20:43.409                             : :Chapter 7
    00:25:44.793                             : :Chapter 8
    00:30:36.752                             : :Chapter 9
    00:35:25.582                             : :Chapter 10
    00:40:50.740                             : :Chapter 11
    00:48:22.108                             : :Chapter 12
    00:52:32.733                             : :Chapter 13
    00:57:53.595                             : :Chapter 14
    01:03:35.812                             : :Chapter 15
    01:07:38.513                             : :Chapter 16
    01:12:43.860                             : :Chapter 17
    01:18:55.731                             : :Chapter 18
    01:21:45.609                             : :Chapter 19
    01:25:16.653                             : :Chapter 20
    01:29:10.428                             : :Chapter 21
    01:32:27.917                             : :Chapter 22
    01:35:55.917                             : :Chapter 23
    01:41:03.266                             : :Chapter 24

     

  • Peso: 6.16 GiB

Sinopsis

Afectado por los horrores que tuvo que contemplar durante la Primera Guerra Mundial, el escritor A. A. Milne se muda al campo junto a su mujer Daphne (Margot Robbie), su hijo Christopher Robin (Will Tilston) y su niñera Olive (Kelly Macdonald). Allí observará al pequeño jugando con sus muñecos, que se convertirán en la inspiración para crear el mágico universo de Winnie the Pooh. Pero, cuando las aventuras del entrañable osito se convierten en todo un éxito en Inglaterra, más necesitada que nunca de esperanza y consuelo tras los estragos sufridos en la contienda, ¿cómo afectará eso al pequeño?

Este biopic ha sido dirigido por Simon Curtis (La dama de oro) y escrito por Frank Cottrell Boyce (24 Hour Party People) y Simon Vaughan (Guerra y Paz). Los protagonistas son Domhnall Gleeson (Star Wars: El Despertar de la Fuerza) y Margot Robbie (Escuadrón Suicida) como el matrimonio Milne, Will Tilston como Christopher Robin y Kelly Macdonald (Anna Karenina) dando vida a su niñera. Pathé desarrollará el proyecto, mientras que Fox Searchlight lo distribuirá y BBC Films co financiará.

Ficha técnica

Video trailer de la película

Enlaces de descarga

Rip de Bluray

Descargar Hasta pronto Christopher Robin (2017) Full 1080p Latino




Aportes de DPeliculasHDmega la pass es:dpeliculashdmega.org Aportes de CinemaniaHD la pass es:cinemaniahdd.com

Películas relacionadas

  • Niños del hombre (2006) Full 1080p Latino

    2006
    Niños del hombre (2006) Full 1080p Latino

    0.0 1 h 49 min 2006

    Año 2027: el ser humano está al borde de la extinción: los hombres han perdido la capacidad de procrear...

    Director: Terry Needham

    Género: Acción

    Actores: Yolanda Vazquez

  • Amateur (2018) NF Webrip 1080p Latino

    2018
    Amateur (2018) NF Webrip 1080p Latino

    0.0 1h 36m 2018

    Un joven jugador de baloncesto se enfrenta a las dificultades de encajar en el nuevo equipo. Adaptación...

    Director: Ryan Koo

    Género: Drama

    Actores: Tekola Cornetet

  • Para atrapar al ladrón (1955) Full 1080p Latino

    1955
    Para atrapar al ladrón (1955) Full 1080p Latino

    0.0 1h 46m 1955

    A pesar de que John Robie "El Gato" (Cary Grant) es un ladrón de joyas reformado, se convierte en el...

    Director: Alfred Hitchcock

    Género: Crimen

    Actores: William 'Wee Willie' Davis

  • Si decido quedarme (2014) Full 1080p Latino

    2014
    Si decido quedarme (2014) Full 1080p Latino

    5.0 1 h 46 min 2014

    Mia es una joven de 17 años que parece tenerlo todo en la vida: una famila adorable, un novio que la...

    Director: R.J. Cutler

    Género: Drama

    Actores: William C. Vaughan

Comentarios 1
  • sancudito - 16 enero, 2018

    buena pelicula