Home Again (2017) 1080p Latino

763 vistas
1 estrella2 estrellas3 estrellas4 estrellas5 estrellas (Ninguna valoración todavía)
Cargando…

Información de Home Again (2017) 1080p Latino

Datos de la película

  • Calidad: 1080p
  • Audio: Español Latino AC3 5.1 BLURAY - Ingles AC3 5.1 BLURAY
  • Subtitulos: Español Latino SRT
  • Resolución: 1920X1036
  • Formato: MKV
  • Codec: H.264
  • Encoder: Dpelis
  • Mediainfo: Clic para Mostrar Datos Ver
  • Format                                   : Matroska
    Format version                           : Version 4 / Version 2
    File size                                : 2.85 GiB
    Duration                                 : 1 h 37 min
    Overall bit rate                         : 4 195 kb/s
    Movie name                               : dpeliculashdmega.org
    Encoded date                             : UTC 2017-11-29 19:19:51 / UTC 2017-11-28T21:36:26Z
    Writing application                      : mkvmerge v15.0.0 ('Duel with the Devil') 64-bit
    Writing library                          : libebml v1.3.5 + libmatroska v1.4.5 / Lavf57.7.2

    Video
    ID                                       : 1
    Format                                   : AVC
    Format/Info                              : Advanced Video Codec
    Format profile                           : High@L4.1
    Format settings                          : CABAC / 4 Ref Frames
    Format settings, CABAC                   : Yes
    Format settings, RefFrames               : 4 frames
    Codec ID                                 : V_MPEG4/ISO/AVC
    Duration                                 : 1 h 37 min
    Bit rate                                 : 3 500 kb/s
    Width                                    : 1 920 pixels
    Height                                   : 1 036 pixels
    Display aspect ratio                     : 1.85:1
    Frame rate mode                          : Constant
    Frame rate                               : 23.976 (24000/1001) FPS
    Color space                              : YUV
    Chroma subsampling                       : 4:2:0
    Bit depth                                : 8 bits
    Scan type                                : Progressive
    Bits/(Pixel*Frame)                       : 0.073
    Stream size                              : 2.27 GiB (80%)
    Title                                    : Home Again (2017) 1080p Latino
    Writing library                          : x264 core 148 r2708 86b7198
    Encoding settings                        : cabac=1 / ref=4 / deblock=1:0:0 / analyse=0x3:0x113 / me=umh / subme=8 / psy=1 / psy_rd=1.00:0.00 / mixed_ref=1 / me_range=16 / chroma_me=1 / trellis=1 / 8x8dct=1 / cqm=0 / deadzone=21,11 / fast_pskip=1 / chroma_qp_offset=-2 / threads=32 / lookahead_threads=5 / sliced_threads=0 / nr=0 / decimate=1 / interlaced=0 / bluray_compat=0 / constrained_intra=0 / bframes=3 / b_pyramid=2 / b_adapt=2 / b_bias=0 / direct=3 / weightb=1 / open_gop=0 / weightp=2 / keyint=240 / keyint_min=24 / scenecut=40 / intra_refresh=0 / rc_lookahead=50 / rc=abr / mbtree=1 / bitrate=3500 / ratetol=1.0 / qcomp=0.60 / qpmin=0 / qpmax=69 / qpstep=4 / vbv_maxrate=62500 / vbv_bufsize=78125 / nal_hrd=none / filler=0 / ip_ratio=1.40 / aq=1:1.00
    Language                                 : English
    Default                                  : Yes
    Forced                                   : No
    Color range                              : Limited
    Color primaries                          : BT.709
    Transfer characteristics                 : BT.709
    Matrix coefficients                      : BT.709
    Statistics Tags Issue                    : mkvmerge v15.0.0 ('Duel with the Devil') 64-bit 2017-11-29 19:19:51 / mkvmerge v15.0.0 ('Duel with the Devil') 64-bit 2017-11-29 19:19:51 / UTC 2017-11-28T21:36:26Z
    FromStats_BitRate                        : 3425341
    FromStats_Duration                       : 01:37:15.372000000
    FromStats_FrameCount                     : 139909
    FromStats_StreamSize                     : 2498517483

    Audio #1
    ID                                       : 2
    Format                                   : AC-3
    Format/Info                              : Audio Coding 3
    Format settings, Endianness              : Big
    Codec ID                                 : A_AC3
    Duration                                 : 1 h 37 min
    Bit rate mode                            : Constant
    Bit rate                                 : 384 kb/s
    Channel(s)                               : 6 channels
    Channel positions                        : Front: L C R, Side: L R, LFE
    Sampling rate                            : 48.0 kHz
    Frame rate                               : 31.250 FPS (1536 SPF)
    Bit depth                                : 16 bits
    Compression mode                         : Lossy
    Delay relative to video                  : -5 ms
    Stream size                              : 267 MiB (9%)
    Title                                    : Latino-AC3
    Language                                 : Spanish
    Service kind                             : Complete Main
    Default                                  : Yes
    Forced                                   : No
    Statistics Tags Issue                    : mkvmerge v15.0.0 ('Duel with the Devil') 64-bit 2017-11-29 19:19:51 / mkvmerge v15.0.0 ('Duel with the Devil') 64-bit 2017-11-29 19:19:51 / UTC 2017-11-28T21:36:26Z
    FromStats_BitRate                        : 384000
    FromStats_Duration                       : 01:37:15.488000000
    FromStats_FrameCount                     : 182359
    FromStats_StreamSize                     : 280103424

    Audio #2
    ID                                       : 3
    Format                                   : AC-3
    Format/Info                              : Audio Coding 3
    Format settings, Endianness              : Big
    Codec ID                                 : A_AC3
    Duration                                 : 1 h 37 min
    Bit rate mode                            : Constant
    Bit rate                                 : 384 kb/s
    Channel(s)                               : 6 channels
    Channel positions                        : Front: L C R, Side: L R, LFE
    Sampling rate                            : 48.0 kHz
    Frame rate                               : 31.250 FPS (1536 SPF)
    Bit depth                                : 16 bits
    Compression mode                         : Lossy
    Delay relative to video                  : -5 ms
    Stream size                              : 267 MiB (9%)
    Title                                    : Ingles-AC3
    Language                                 : English
    Service kind                             : Complete Main
    Default                                  : No
    Forced                                   : No
    Statistics Tags Issue                    : mkvmerge v15.0.0 ('Duel with the Devil') 64-bit 2017-11-29 19:19:51 / mkvmerge v15.0.0 ('Duel with the Devil') 64-bit 2017-11-29 19:19:51 / UTC 2017-11-28T21:36:26Z
    FromStats_BitRate                        : 384000
    FromStats_Duration                       : 01:37:15.424000000
    FromStats_FrameCount                     : 182357
    FromStats_StreamSize                     : 280100352

    Text #1
    ID                                       : 4
    Format                                   : UTF-8
    Codec ID                                 : S_TEXT/UTF8
    Codec ID/Info                            : UTF-8 Plain Text
    Title                                    : Forzados
    Language                                 : Spanish
    Default                                  : Yes
    Forced                                   : Yes
    Statistics Tags Issue                    : mkvmerge v15.0.0 ('Duel with the Devil') 64-bit 2017-11-29 19:19:51 / mkvmerge v15.0.0 ('Duel with the Devil') 64-bit 2017-11-29 19:19:51 / UTC 2017-11-28T21:36:26Z
    FromStats_BitRate                        : 0
    FromStats_Duration                       : 01:22:39.960000000
    FromStats_FrameCount                     : 9
    FromStats_StreamSize                     : 289

    Text #2
    ID                                       : 5
    Format                                   : UTF-8
    Codec ID                                 : S_TEXT/UTF8
    Codec ID/Info                            : UTF-8 Plain Text
    Title                                    : Completos
    Language                                 : Spanish
    Default                                  : No
    Forced                                   : No
    Statistics Tags Issue                    : mkvmerge v15.0.0 ('Duel with the Devil') 64-bit 2017-11-29 19:19:51 / mkvmerge v15.0.0 ('Duel with the Devil') 64-bit 2017-11-29 19:19:51 / UTC 2017-11-28T21:36:26Z
    FromStats_BitRate                        : 91
    FromStats_Duration                       : 01:31:46.716000000
    FromStats_FrameCount                     : 1800
    FromStats_StreamSize                     : 62835

    Menu
    00:00:00.000                             : :00:00:00.000
    00:06:00.110                             : :00:06:00.110
    00:11:00.285                             : :00:11:00.285
    00:16:54.222                             : :00:16:54.222
    00:20:11.210                             : :00:20:11.210
    00:25:08.132                             : :00:25:08.132
    00:29:37.276                             : :00:29:37.275
    00:35:04.352                             : :00:35:04.352
    00:40:23.087                             : :00:40:23.087
    00:46:32.915                             : :00:46:32.915
    00:51:47.354                             : :00:51:47.354
    00:54:48.160                             : :00:54:48.160
    00:59:20.140                             : :00:59:20.140
    01:03:16.209                             : :01:03:16.209
    01:09:23.409                             : :01:09:23.284
    01:15:03.124                             : :01:15:03.124
    01:17:19.760                             : :01:17:19.760
    01:21:08.781                             : :01:21:08.697
    01:27:51.308                             : :01:27:51.308
    01:32:42.223                             : :01:32:42.098

  • Peso: 2.85 GiB

Sinopsis

Una madre de dos hijos se acaba de separar y decide iniciar una nueva vida en Los Ángeles. Los acontecimientos dan un giro inesperado cuando permite que tres atractivos jóvenes se muden a vivir a su casa.

Home Again es una comedia dirigida por Hallie Meyers-Shyer (¿En qué piensan las mujeres?Tú a Londres y yo a California) que cuenta con la participación de Reese Witherspoon (En la cuerda flojaAlma salvaje), Michael Sheen (Midnight in ParisEl reino de los cielos), Candice Bergen (Guerra de noviasMiss Agente Especial) y Reid Scott (VeepNew Girl), entre otros.

Ficha técnica

  • Titulo original: Home Again
  • Fecha de lanzamiento: 07-09-2017 (United States of America)
  • Director: Hallie Meyers-Shyer
  • Género: Comedia, Drama
  • Puntuación: 0.0 0 votos
  • Duración:
    1 h 37 min

Video trailer de la película

Enlaces de descarga

Rip de Bluray

Descargar Home Again (2017) 1080p Latino




Aportes de DPeliculasHDmega la pass es:dpeliculashdmega.org Aportes de CinemaniaHD la pass es:cinemaniahdd.com
Guardado en : Comedia , Drama

Películas relacionadas

  • Para atrapar al ladrón (1955) Full 1080p Latino

    1955
    Para atrapar al ladrón (1955) Full 1080p Latino

    0.0 1h 46m 1955

    A pesar de que John Robie "El Gato" (Cary Grant) es un ladrón de joyas reformado, se convierte en el...

    Director: Alfred Hitchcock

    Género: Crimen

    Actores: William 'Wee Willie' Davis

  • Si decido quedarme (2014) Full 1080p Latino

    2014
    Si decido quedarme (2014) Full 1080p Latino

    0.0 1 h 46 min 2014

    Mia es una joven de 17 años que parece tenerlo todo en la vida: una famila adorable, un novio que la...

    Director: R.J. Cutler

    Género: Drama

    Actores: William C. Vaughan

  • Dude (2018) NF 1080p Latino

    2018
    Dude (2018) NF 1080p Latino

    5.0 1h 30m 2018

    Cuatro mejores amigas se tienen que enfrentar a su nueva vida. Las dos últimas semanas de instituto...

    Director: Olivia Milch

    Género: Comedia

    Actores: Sydney Lucas

  • A Ghost Story (2017) 1080p Latino

    2017
    A Ghost Story (2017) 1080p Latino

    5.0 1h 27m 2017

    Un hombre recientemente fallecido regresa a su casa como un fantasma vestido con una sábana blanca para...

    Director: David Lowery

    Género: Drama

    Actores: Yasmina Gutierrez

  • Gun shy (2017) 1080p Latino

    2017
    Gun shy (2017) 1080p Latino

    0.0 1h 31m 2017

    Basada en la novela homónima de Mark Haskell Smith. Turk Henry es una antigua estrella de rock con sobrepeso...

    Director: Simon West

    Género: Acción

    Actores: Sebastián Apiolaza

Comentarios 0