¡Huye! (2017) 1080p BluRay x265 HEVC DTS

1.600 vistas
1 estrella2 estrellas3 estrellas4 estrellas5 estrellas (1 votos, promedio: 4,00 de 5)
Cargando…

Información de ¡Huye! (2017) 1080p BluRay x265 HEVC DTS

Datos de la película

  • Calidad: Full 1080p
  • Audio: Ingles DTS 5.1 BLURAY
  • Subtitulos: Español Latino SRT
  • Resolución: 1920x1080p
  • Formato: MKV
  • Codec: H.265
  • Encoder:
  • Mediainfo: Clic para Mostrar Datos Ver
  • ¡Huye! (2017) 1080p BluRay x265 HEVC DTS.mkv
    Format                      : Matroska
    Format version              : Version 4 / Version 2
    File size                   : 2.29 GiB
    Duration                    : 1 h 44 min
    Overall bit rate            : 3 151 kb/s
    Encoded date                : UTC 2017-05-20 15:48:10
    Writing application         : mkvmerge v10.0.0 ('To Drown In You') 64bit
    Writing library             : libebml v1.3.4 + libmatroska v1.4.5

    Video
    ID                          : 1
    Format                      : HEVC
    Format/Info                 : High Efficiency Video Coding
    Format profile              : [email protected]@Main
    Codec ID                    : V_MPEGH/ISO/HEVC
    Duration                    : 1 h 44 min
    Bit rate                    : 1 613 kb/s
    Width                       : 1 920 pixels
    Height                      : 1 080 pixels
    Display aspect ratio        : 16:9
    Frame rate mode             : Constant
    Frame rate                  : 23.976 (24000/1001) FPS
    Color space                 : YUV
    Chroma subsampling          : 4:2:0
    Bit depth                   : 8 bits
    Bits/(Pixel*Frame)          : 0.032
    Stream size                 : 1.17 GiB (51%)
    Writing library             : x265 2.1:[Windows][GCC 5.3.1][64 bit] 8bit
    Encoding settings           : wpp / ctu=64 / min-cu-size=8 / max-tu-size=32 / tu-intra-depth=1 / tu-inter-depth=1 / me=3 / subme=3 / merange=57 / rect / no-amp / max-merge=3 / temporal-mvp / no-early-skip / rskip / rdpenalty=0 / no-tskip / no-tskip-fast / strong-intra-smoothing / no-lossless / no-cu-lossless / no-constrained-intra / no-fast-intra / open-gop / no-temporal-layers / interlace=0 / keyint=240 / min-keyint=24 / scenecut=40 / rc-lookahead=25 / lookahead-slices=4 / bframes=4 / bframe-bias=0 / b-adapt=2 / ref=4 / limit-refs=3 / limit-modes / weightp / no-weightb / aq-mode=1 / qg-size=32 / aq-strength=1.00 / cbqpoffs=0 / crqpoffs=0 / rd=4 / psy-rd=2.00 / rdoq-level=2 / psy-rdoq=1.00 / log2-max-poc-lsb=8 / no-rd-refine / signhide / deblock=0:0 / sao / no-sao-non-deblock / b-pyramid / cutree / no-intra-refresh / rc=crf / crf=20.0 / qcomp=0.60 / qpmin=0 / qpmax=69 / qpstep=4 / ipratio=1.40 / pbratio=1.30
    Default                     : Yes
    Forced                      : No
    Color range                 : Limited
    Color primaries             : BT.709
    Transfer characteristics    : BT.709
    Matrix coefficients         : BT.709

    Audio
    ID                          : 2
    Format                      : DTS
    Format/Info                 : Digital Theater Systems
    Mode                        : 16
    Format settings, Endianness : Big
    Codec ID                    : A_DTS
    Duration                    : 1 h 44 min
    Bit rate mode               : Constant
    Bit rate                    : 1 509 kb/s
    Channel(s)                  : 6 channels
    Channel positions           : Front: L C R, Side: L R, LFE
    Sampling rate               : 48.0 kHz
    Frame rate                  : 93.750 FPS (512 spf)
    Bit depth                   : 24 bits
    Compression mode            : Lossy
    Stream size                 : 1.10 GiB (48%)
    Title                       : Inglés DTS 5.1 [1509 Kbps]
    Language                    : English
    Default                     : Yes
    Forced                      : No

    Text #1
    ID                          : 3
    Format                      : UTF-8
    Codec ID                    : S_TEXT/UTF8
    Codec ID/Info               : UTF-8 Plain Text
    Duration                    : 1 h 38 min
    Bit rate                    : 46 b/s
    Count of elements           : 1203
    Stream size                 : 33.3 KiB (0%)
    Title                       : Subtítulos Español Latino [SRT]
    Language                    : Spanish
    Default                     : Yes
    Forced                      : No

    Text #2
    ID                          : 4
    Format                      : PGS
    Codec ID                    : S_HDMV/PGS
    Codec ID/Info               : Picture based subtitle format used on BDs/HD-DVDs
    Duration                    : 1 h 43 min
    Bit rate                    : 27.4 kb/s
    Count of elements           : 2409
    Stream size                 : 20.2 MiB (1%)
    Title                       : Subtítulos Español Latino [PGS]
    Language                    : Spanish
    Default                     : No
    Forced                      : No

    Menu
    00:00:00.000                : :Chapter 1
    00:04:52.834                : :Chapter 2
    00:10:13.530                : :Chapter 3
    00:14:02.258                : :Chapter 4
    00:19:07.480                : :Chapter 5
    00:21:49.433                : :Chapter 6
    00:26:07.357                : :Chapter 7
    00:30:50.974                : :Chapter 8
    00:37:19.487                : :Chapter 9
    00:42:16.868                : :Chapter 10
    00:48:03.172                : :Chapter 11
    00:54:13.584                : :Chapter 12
    00:57:38.288                : :Chapter 13
    01:03:33.810                : :Chapter 14
    01:10:48.911                : :Chapter 15
    01:15:36.365                : :Chapter 16
    01:22:02.543                : :Chapter 17
    01:26:13.418                : :Chapter 18
    01:32:24.414                : :Chapter 19
    01:40:22.391                : :Chapter 20

  • Peso: 2.29 GB

Sinopsis

Un joven afroamericano llamado Chris tiene que ir junto a su novia blanca a visitar a los padres de ella por primera vez. Aunque al principio todo parece ir bastante bien, no tardará en darse cuenta de que algo raro pasa con la gente de color con la que entra en contacto.

Ficha técnica

Video trailer de la película

Enlaces de descarga

Descargar ¡Huye! (2017) 1080p BluRay x265 HEVC DTS

dpeliculas

Aportes de DPeliculasHDmega la pass es:dpeliculashdmega.org Aportes de CinemaniaHD la pass es:cinemaniahdd.com

Películas relacionadas

  • Saw VIII (Jigsaw) (2017) 4K HDR Latino

    2017
    Saw VIII (Jigsaw) (2017) 4K HDR Latino

    5.0 1 h 31 min 2017

    ¿Estaremos más cerca de conocer el desenlace de los macabros planes ideados por Jigsaw? Octava entrega...

    Director: Simon Board

    Género: 4K HDR

    Actores: Tobin Bell

  • First Kill (2017) 1080p Latino

    2017
    First Kill (2017) 1080p Latino

    0.0 1h 37m 2017

    El joven padre Will (Hayden Christensen) lleva a su familia en de viaje a una cabaña en el bosque. Por...

    Director: Steven C. Miller

    Género: Acción

    Actores: William DeMeo

  • Battleship (2012) 4K HDR Latino

    2012
    Battleship (2012) 4K HDR Latino

    0.0 2h 11m 2012

    “Battleship” es la libre adaptación al cine del popular juego de mesa de Hasbro conocido como “Hundir...

    Director: Peter Berg

    Género: 4K HDR

    Actores: Yutaka Takeuchi

Comentarios 6
  • leonidas - 31 mayo, 2017

    Exelente aporte,
    El formato esta muy bueno gracias

  • Milton Soto - 31 mayo, 2017

    WOW, muchas gracias!

  • Byron - 31 mayo, 2017

    Y la plateada para cuando estará disponible?

    • dpelis - 01 junio, 2017

      ps este mes, con audio itunes porq no hay mas

      • Byron - 01 junio, 2017

        En que pais se encuentran ustedes? lo digo porque ya me aparece el comentario de 1 de junio y yo tengo las 6.45 pm hora de Guatemala aun 31 de mayo, creo que me hablan del futuro :v