Inception (2010) Full 1080p Latino

1.446 vistas
1 estrella2 estrellas3 estrellas4 estrellas5 estrellas (Ninguna valoración todavía)
Cargando…

Información de Inception (2010) Full 1080p Latino

Datos de la película

  • Calidad: Full 1080p
  • Audio: Español Latino AC3 5.1 BLURAY - Ingles DTS 5.1 BLURAY
  • Subtitulos: Español Latino PGS - Ingles PGS
  • Resolución: 1920X1080p
  • Formato: MKV
  • Codec: H.264
  • Encoder: Dracarys
  • Mediainfo: Clic para Mostrar Datos Ver
  • Format                                   : Matroska
    Format version                           : Version 4 / Version 2
    File size                                : 6.44 GiB
    Duration                                 : 2 h 28 min
    Overall bit rate                         : 6 220 kb/s
    Movie name                               : CinemaniaHDD.com
    Encoded date                             : UTC 2018-03-21 05:09:16 / UTC 2018-03-20T17:43:15Z
    Writing application                      : mkvmerge v15.0.0 ('Duel with the Devil') 64-bit
    Writing library                          : libebml v1.3.5 + libmatroska v1.4.5 / Lavf57.7.2

    Video
    ID                                       : 1
    Format                                   : AVC
    Format/Info                              : Advanced Video Codec
    Format profile                           : High@L4.1
    Format settings                          : CABAC / 4 Ref Frames
    Format settings, CABAC                   : Yes
    Format settings, RefFrames               : 4 frames
    Codec ID                                 : V_MPEG4/ISO/AVC
    Duration                                 : 2 h 28 min
    Bit rate                                 : 3 947 kb/s
    Width                                    : 1 920 pixels
    Height                                   : 1 080 pixels
    Display aspect ratio                     : 16:9
    Frame rate mode                          : Constant
    Frame rate                               : 23.976 (24000/1001) FPS
    Color space                              : YUV
    Chroma subsampling                       : 4:2:0
    Bit depth                                : 8 bits
    Scan type                                : Progressive
    Bits/(Pixel*Frame)                       : 0.079
    Stream size                              : 4.08 GiB (63%)
    Title                                    : Inception (2010) Full 1080p Latino
    Writing library                          : x264 core 148 r2708 86b7198
    Encoding settings                        : cabac=1 / ref=4 / deblock=1:0:0 / analyse=0x3:0x133 / me=esa / subme=9 / psy=1 / psy_rd=1.00:0.00 / mixed_ref=1 / me_range=16 / chroma_me=1 / trellis=2 / 8x8dct=1 / cqm=0 / deadzone=21,11 / fast_pskip=1 / chroma_qp_offset=-2 / threads=34 / lookahead_threads=2 / sliced_threads=0 / nr=0 / decimate=1 / interlaced=0 / bluray_compat=0 / constrained_intra=0 / bframes=3 / b_pyramid=2 / b_adapt=2 / b_bias=0 / direct=3 / weightb=1 / open_gop=0 / weightp=2 / keyint=240 / keyint_min=24 / scenecut=40 / intra_refresh=0 / rc_lookahead=60 / rc=crf / mbtree=1 / crf=20.0 / qcomp=0.60 / qpmin=0 / qpmax=69 / qpstep=4 / vbv_maxrate=62500 / vbv_bufsize=78125 / crf_max=0.0 / nal_hrd=none / filler=0 / ip_ratio=1.40 / aq=1:1.00
    Language                                 : English
    Default                                  : Yes
    Forced                                   : No
    Color range                              : Limited
    Color primaries                          : BT.709
    Transfer characteristics                 : BT.709
    Matrix coefficients                      : BT.709
    Statistics Tags Issue                    : mkvmerge v15.0.0 ('Duel with the Devil') 64-bit 2018-03-21 05:09:16 / mkvmerge v15.0.0 ('Duel with the Devil') 64-bit 2018-03-21 05:09:16 / UTC 2018-03-20T17:43:15Z
    FromStats_BitRate                        : 4056272
    FromStats_Duration                       : 02:28:07.921000000
    FromStats_FrameCount                     : 213097
    FromStats_StreamSize                     : 4506479072

    Audio #1
    ID                                       : 2
    Format                                   : AC-3
    Format/Info                              : Audio Coding 3
    Format settings, Endianness              : Big
    Codec ID                                 : A_AC3
    Duration                                 : 2 h 28 min
    Bit rate mode                            : Constant
    Bit rate                                 : 640 kb/s
    Channel(s)                               : 6 channels
    Channel positions                        : Front: L C R, Side: L R, LFE
    Sampling rate                            : 48.0 kHz
    Frame rate                               : 31.250 FPS (1536 SPF)
    Bit depth                                : 16 bits
    Compression mode                         : Lossy
    Stream size                              : 678 MiB (10%)
    Language                                 : Spanish
    Service kind                             : Complete Main
    Default                                  : Yes
    Forced                                   : No
    Statistics Tags Issue                    : mkvmerge v15.0.0 ('Duel with the Devil') 64-bit 2018-03-21 05:09:16 / mkvmerge v15.0.0 ('Duel with the Devil') 64-bit 2018-03-21 05:09:16 / UTC 2018-03-20T17:43:15Z
    FromStats_BitRate                        : 640000
    FromStats_Duration                       : 02:28:08.064000000
    FromStats_FrameCount                     : 277752
    FromStats_StreamSize                     : 711045120

    Audio #2
    ID                                       : 3
    Format                                   : DTS
    Format/Info                              : Digital Theater Systems
    Mode                                     : 16
    Format settings, Endianness              : Big
    Codec ID                                 : A_DTS
    Duration                                 : 2 h 28 min
    Bit rate mode                            : Constant
    Bit rate                                 : 1 509 kb/s
    Channel(s)                               : 6 channels
    Channel positions                        : Front: L C R, Side: L R, LFE
    Sampling rate                            : 48.0 kHz
    Frame rate                               : 93.750 FPS (512 SPF)
    Bit depth                                : 24 bits
    Compression mode                         : Lossy
    Stream size                              : 1.56 GiB (24%)
    Language                                 : English
    Default                                  : No
    Forced                                   : No
    Statistics Tags Issue                    : mkvmerge v15.0.0 ('Duel with the Devil') 64-bit 2018-03-21 05:09:16 / mkvmerge v15.0.0 ('Duel with the Devil') 64-bit 2018-03-21 05:09:16 / UTC 2018-03-20T17:43:15Z
    FromStats_BitRate                        : 1508999
    FromStats_Duration                       : 02:28:07.958000000
    FromStats_FrameCount                     : 833246
    FromStats_StreamSize                     : 1676490952

    Text #1
    ID                                       : 4
    Format                                   : UTF-8
    Codec ID                                 : S_TEXT/UTF8
    Codec ID/Info                            : UTF-8 Plain Text
    Title                                    : SRT-Forzados
    Language                                 : Spanish
    Default                                  : Yes
    Forced                                   : Yes
    Statistics Tags Issue                    : mkvmerge v15.0.0 ('Duel with the Devil') 64-bit 2018-03-21 05:09:16 / mkvmerge v15.0.0 ('Duel with the Devil') 64-bit 2018-03-21 05:09:16 / UTC 2018-03-20T17:43:15Z
    FromStats_BitRate                        : 0
    FromStats_Duration                       : 02:09:17.854000000
    FromStats_FrameCount                     : 5
    FromStats_StreamSize                     : 100

    Text #2
    ID                                       : 5
    Format                                   : PGS
    Muxing mode                              : zlib
    Codec ID                                 : S_HDMV/PGS
    Codec ID/Info                            : Picture based subtitle format used on BDs/HD-DVDs
    Title                                    : PGS-Completos
    Language                                 : Spanish
    Default                                  : No
    Forced                                   : No
    Statistics Tags Issue                    : mkvmerge v15.0.0 ('Duel with the Devil') 64-bit 2018-03-21 05:09:16 / mkvmerge v15.0.0 ('Duel with the Devil') 64-bit 2018-03-21 05:09:16 / UTC 2018-03-20T17:43:15Z
    FromStats_BitRate                        : 27028
    FromStats_Duration                       : 02:26:23.959000000
    FromStats_FrameCount                     : 3108
    FromStats_StreamSize                     : 29676738

    Text #3
    ID                                       : 6
    Format                                   : PGS
    Muxing mode                              : zlib
    Codec ID                                 : S_HDMV/PGS
    Codec ID/Info                            : Picture based subtitle format used on BDs/HD-DVDs
    Title                                    : PGS-Forzados
    Language                                 : Spanish
    Default                                  : No
    Forced                                   : No
    Statistics Tags Issue                    : mkvmerge v15.0.0 ('Duel with the Devil') 64-bit 2018-03-21 05:09:16 / mkvmerge v15.0.0 ('Duel with the Devil') 64-bit 2018-03-21 05:09:16 / UTC 2018-03-20T17:43:15Z
    FromStats_BitRate                        : 110
    FromStats_Duration                       : 02:19:54.612000000
    FromStats_FrameCount                     : 64
    FromStats_StreamSize                     : 116306

    Menu
    00:00:00.000                             : :Scene 1
    00:11:41.743                             : :Scene 2
    00:21:37.338                             : :Scene 3
    00:31:20.337                             : :Scene 4
    00:41:22.230                             : :Scene 5
    00:51:13.737                             : :Scene 6
    01:01:21.553                             : :Scene 7
    01:10:29.684                             : :Scene 8
    01:22:15.597                             : :Scene 9
    01:31:52.590                             : :Scene 10
    01:40:38.533                             : :Scene 11
    01:51:22.176                             : :Scene 12
    02:00:54.414                             : :Scene 13
    02:10:09.051                             : :Scene 14
    02:20:55.447                             : :Scene 15

  • Peso: 6.44 GiB

Sinopsis

Dom Cobb es un ladrón hábil, el mejor de todos, especializado en el peligroso arte de extracción: el robo de secretos valiosos desde las profundidades del subconsciente durante el estado de sueño cuando la mente está más vulnerable. Esta habilidad excepcional de Cobb le ha hecho un jugador codiciado en el traicionero nuevo mundo de espionaje corporativo, pero al mismo tiempo, le ha convertido en un fugitivo internacional y ha tenido que sacrificar todo que le importaba. Ahora a Cobb se le ofrece una oportunidad para redimirse. Con un último trabajo podría recuperar su vida anterior, pero solamente si logra lo imposible.

Ficha técnica

Video trailer de la película

Enlaces de descarga

Rip de Bluray

Descargar Inception (2010) Full 1080p Latino




Aportes de DPeliculasHDmega la pass es:dpeliculashdmega.org Aportes de CinemaniaHD la pass es:cinemaniahdd.com

Películas relacionadas

  • Bushwick (2017) 1080p Latino

    2017
    Bushwick (2017) 1080p Latino

    5.0 1h 34m 2017

    Cuando Lucy sale del metro en Bushwick, el último barrio de moda de Nueva York, no encuentra ni hipsters...

    Director: Jonathan Milott

    Género: Acción

    Actores: Myra Lucretia Taylor

  • Gun shy (2017) 1080p Latino

    2017
    Gun shy (2017) 1080p Latino

    0.0 1h 31m 2017

    Basada en la novela homónima de Mark Haskell Smith. Turk Henry es una antigua estrella de rock con sobrepeso...

    Director: Simon West

    Género: Acción

    Actores: Sebastián Apiolaza

  • Deep Blue Sea 2 (2018) 1080p Latino

    2018
    Deep Blue Sea 2 (2018) 1080p Latino

    5.0 1h 34m 2018

    La Doctora Misty Calhoun, conservacionista de tiburones, es invitada para asesorar un proyecto secreto...

    Director: Darin Scott

    Género: Acción

    Actores: Rob Mayes

  • Maze Runner prueba de fuego (2015) Full 1080p Latino

    2015
    Maze Runner prueba de fuego (2015) Full 1080p Latino

    5.0 2 h 11 min 2015

    En este nuevo capítulo de la trepidante saga "El Corredor del Laberinto", Thomas (Dylan O'Brien) y el...

    Director: Wes Ball

    Género: Acción

    Actores: Thomas Brodie-Sangster

  • Maze Runner correr o morir (2014) Full 1080p Latino

    2014
    Maze Runner correr o morir (2014) Full 1080p Latino

    5.0 1 h 53 min 2014

    Thomas abre los ojos y se da cuenta que está en un ascensor. Lo extraño es que no recuerda nada, ni...

    Director: Wes Ball

    Género: Acción

    Actores: Will Poulter

Comentarios 1
  • ocpgaiden - 22 marzo, 2018

    una de las mejores peliculas de diCaprio, gracias por la peli