Insidious La Ultima Llave (2018) Full 1080p Latino

1.500 vistas
1 estrella2 estrellas3 estrellas4 estrellas5 estrellas (Ninguna valoración todavía)
Cargando…

Información de Insidious La Ultima Llave (2018) Full 1080p Latino

Datos de la película

  • Calidad: Full 1080p
  • Audio: Español Latino AC3 5.1 BLURAY - Ingles DTS 5.1 BLURAY
  • Subtitulos: Español Latino PGS - Ingles PGS
  • Resolución: 1920x1080p
  • Formato: MKV
  • Codec: H.264
  • Encoder: Dracarys
  • Mediainfo: Clic para Mostrar Datos Ver
  • Format                                   : Matroska
    Format version                           : Version 4 / Version 2
    File size                                : 3.02 GiB
    Duration                                 : 1 h 43 min
    Overall bit rate                         : 4 182 kb/s
    Movie name                               : CinemaniaHDD.com
    Encoded date                             : UTC 2018-03-28 03:14:27 / UTC 2018-03-27T20:58:44Z
    Writing application                      : mkvmerge v15.0.0 ('Duel with the Devil') 64-bit
    Writing library                          : libebml v1.3.5 + libmatroska v1.4.5 / Lavf57.7.2

    Video
    ID                                       : 1
    Format                                   : AVC
    Format/Info                              : Advanced Video Codec
    Format profile                           : High@L4.1
    Format settings                          : CABAC / 4 Ref Frames
    Format settings, CABAC                   : Yes
    Format settings, RefFrames               : 4 frames
    Codec ID                                 : V_MPEG4/ISO/AVC
    Duration                                 : 1 h 43 min
    Bit rate                                 : 1 950 kb/s
    Width                                    : 1 920 pixels
    Height                                   : 1 080 pixels
    Display aspect ratio                     : 16:9
    Frame rate mode                          : Constant
    Frame rate                               : 23.976 (24000/1001) FPS
    Color space                              : YUV
    Chroma subsampling                       : 4:2:0
    Bit depth                                : 8 bits
    Scan type                                : Progressive
    Bits/(Pixel*Frame)                       : 0.039
    Stream size                              : 1.41 GiB (47%)
    Title                                    : Insidious La Ultima Llave (2018) Full 1080p Latino
    Writing library                          : x264 core 148 r2708 86b7198
    Encoding settings                        : cabac=1 / ref=4 / deblock=1:0:0 / analyse=0x3:0x133 / me=esa / subme=9 / psy=1 / psy_rd=1.00:0.00 / mixed_ref=1 / me_range=16 / chroma_me=1 / trellis=2 / 8x8dct=1 / cqm=0 / deadzone=21,11 / fast_pskip=1 / chroma_qp_offset=-2 / threads=34 / lookahead_threads=2 / sliced_threads=0 / nr=0 / decimate=1 / interlaced=0 / bluray_compat=0 / constrained_intra=0 / bframes=3 / b_pyramid=2 / b_adapt=2 / b_bias=0 / direct=3 / weightb=1 / open_gop=0 / weightp=2 / keyint=240 / keyint_min=24 / scenecut=40 / intra_refresh=0 / rc_lookahead=60 / rc=crf / mbtree=1 / crf=20.0 / qcomp=0.60 / qpmin=0 / qpmax=69 / qpstep=4 / vbv_maxrate=62500 / vbv_bufsize=78125 / crf_max=0.0 / nal_hrd=none / filler=0 / ip_ratio=1.40 / aq=1:1.00
    Language                                 : English
    Default                                  : Yes
    Forced                                   : No
    Color range                              : Limited
    Color primaries                          : BT.709
    Transfer characteristics                 : BT.709
    Matrix coefficients                      : BT.709
    Statistics Tags Issue                    : mkvmerge v15.0.0 ('Duel with the Devil') 64-bit 2018-03-28 03:14:27 / mkvmerge v15.0.0 ('Duel with the Devil') 64-bit 2018-03-28 03:14:27 / UTC 2018-03-27T20:58:44Z
    FromStats_BitRate                        : 2011197
    FromStats_Duration                       : 01:43:24.198000000
    FromStats_FrameCount                     : 148752
    FromStats_StreamSize                     : 1559733733

    Audio #1
    ID                                       : 2
    Format                                   : AC-3
    Format/Info                              : Audio Coding 3
    Format settings, Endianness              : Big
    Codec ID                                 : A_AC3
    Duration                                 : 1 h 43 min
    Bit rate mode                            : Constant
    Bit rate                                 : 640 kb/s
    Channel(s)                               : 6 channels
    Channel positions                        : Front: L C R, Side: L R, LFE
    Sampling rate                            : 48.0 kHz
    Frame rate                               : 31.250 FPS (1536 SPF)
    Bit depth                                : 16 bits
    Compression mode                         : Lossy
    Stream size                              : 473 MiB (15%)
    Language                                 : Spanish
    Service kind                             : Complete Main
    Default                                  : Yes
    Forced                                   : No
    Statistics Tags Issue                    : mkvmerge v15.0.0 ('Duel with the Devil') 64-bit 2018-03-28 03:14:27 / mkvmerge v15.0.0 ('Duel with the Devil') 64-bit 2018-03-28 03:14:27 / UTC 2018-03-27T20:58:44Z
    FromStats_BitRate                        : 640000
    FromStats_Duration                       : 01:43:24.192000000
    FromStats_FrameCount                     : 193881
    FromStats_StreamSize                     : 496335360

    Audio #2
    ID                                       : 3
    Format                                   : DTS
    Format/Info                              : Digital Theater Systems
    Mode                                     : 16
    Format settings, Endianness              : Big
    Codec ID                                 : A_DTS
    Duration                                 : 1 h 43 min
    Bit rate mode                            : Constant
    Bit rate                                 : 1 509 kb/s
    Channel(s)                               : 6 channels
    Channel positions                        : Front: L C R, Side: L R, LFE
    Sampling rate                            : 48.0 kHz
    Frame rate                               : 93.750 FPS (512 SPF)
    Bit depth                                : 24 bits
    Compression mode                         : Lossy
    Stream size                              : 1.09 GiB (36%)
    Language                                 : English
    Default                                  : No
    Forced                                   : No
    Statistics Tags Issue                    : mkvmerge v15.0.0 ('Duel with the Devil') 64-bit 2018-03-28 03:14:27 / mkvmerge v15.0.0 ('Duel with the Devil') 64-bit 2018-03-28 03:14:27 / UTC 2018-03-27T20:58:44Z
    FromStats_BitRate                        : 1508999
    FromStats_Duration                       : 01:43:24.203000000
    FromStats_FrameCount                     : 581644
    FromStats_StreamSize                     : 1170267728

    Text #1
    ID                                       : 4
    Format                                   : PGS
    Muxing mode                              : zlib
    Codec ID                                 : S_HDMV/PGS
    Codec ID/Info                            : Picture based subtitle format used on BDs/HD-DVDs
    Language                                 : English
    Default                                  : No
    Forced                                   : No
    Statistics Tags Issue                    : mkvmerge v15.0.0 ('Duel with the Devil') 64-bit 2018-03-28 03:14:27 / mkvmerge v15.0.0 ('Duel with the Devil') 64-bit 2018-03-28 03:14:27 / UTC 2018-03-27T20:58:44Z
    FromStats_BitRate                        : 20500
    FromStats_Duration                       : 01:34:31.332000000
    FromStats_FrameCount                     : 1671
    FromStats_StreamSize                     : 14533133

    Text #2
    ID                                       : 5
    Format                                   : PGS
    Muxing mode                              : zlib
    Codec ID                                 : S_HDMV/PGS
    Codec ID/Info                            : Picture based subtitle format used on BDs/HD-DVDs
    Language                                 : Spanish
    Default                                  : No
    Forced                                   : No
    Statistics Tags Issue                    : mkvmerge v15.0.0 ('Duel with the Devil') 64-bit 2018-03-28 03:14:27 / mkvmerge v15.0.0 ('Duel with the Devil') 64-bit 2018-03-28 03:14:27 / UTC 2018-03-27T20:58:44Z
    FromStats_BitRate                        : 16883
    FromStats_Duration                       : 01:42:16.673000000
    FromStats_FrameCount                     : 1656
    FromStats_StreamSize                     : 12951220

    Menu
    00:00:00.000                             : :Chapter 1
    00:16:21.397                             : :Chapter 2
    00:19:55.111                             : :Chapter 3
    00:22:29.056                             : :Chapter 4
    00:29:03.617                             : :Chapter 5
    00:36:24.307                             : :Chapter 6
    00:44:05.685                             : :Chapter 7
    00:54:14.251                             : :Chapter 8
    00:57:21.855                             : :Chapter 9
    01:02:08.183                             : :Chapter 10
    01:05:17.664                             : :Chapter 11
    01:10:17.964                             : :Chapter 12
    01:16:58.322                             : :Chapter 13
    01:22:11.593                             : :Chapter 14
    01:29:49.509                             : :Chapter 15
    01:34:34.294                             : :Chapter 16

  • Peso: 3.02 GiB

Sinopsis

En esta nueva película de terror original, en la que veremos de nuevo a Lin Shaye como la Doctora Elise Rainier, la brillante parapsicóloga se enfrenta a su más personal y aterradora caza hasta la fecha, que sucede en su antigua casa familiar. Notas de producción
– Cuarta entrega de la saga “Insidious”.

Ficha técnica

Video trailer de la película

Enlaces de descarga

Rip de Bluray

Descargar Insidious La Ultima Llave (2018) Full 1080p Latino




Aportes de DPeliculasHDmega la pass es:dpeliculashdmega.org Aportes de CinemaniaHD la pass es:cinemaniahdd.com

Películas relacionadas

  • Tremors a cold day in hell (2018)1080p Latino

    2018
    Tremors a cold day in hell (2018)1080p Latino

    0.0 0h 0m 2018

    La secuela nos muestra a Burt Gummer y a su hijo Travis en una estación de investiagción remota, donde...

    Director: Don Michael Paul

    Género: Acción

    Actores: Tanya van Graan

  • Mamá de alquiler (2008) Full 1080p Latino

    2008
    Mamá de alquiler (2008) Full 1080p Latino

    0.0 33h 28m 2008

    Una brillante mujer de negocios sueña con tener un hijo, pero descubre que no es fértil, por lo que...

    Director: Michael McCullers

    Género: Comedia

    Actores: Will Forte

  • La telaraña de Charlotte (2006) Full 1080p Latino

    2006
    La telaraña de Charlotte (2006) Full 1080p Latino

    0.0 1 h 36 min 2006

    Wilbur, un cerdito que vive en una granja, se entera de que su posible destino final es acabar en el...

    Director: Gary Winick

    Género: Comedia

    Actores: Thomas Haden Church

Comentarios 9
  • paulo - 29 marzo, 2018

    no abren los enlaces en el paste publico

    • dpelis - 30 marzo, 2018

      Dejé Captura del error
      Saludos

      • paulo - 31 marzo, 2018

        bueno solo le hago click al paste publico y no abre nada ni con las otras peliculas

        • dpelis - 01 abril, 2018

          usa mozilla

  • Martin - 28 marzo, 2018

    subirán las otras 3 películas de Insidious?

  • ocpgaiden - 28 marzo, 2018

    excelente movie para pasar una noche de miedo, gracias por la pelicula

  • sebas - 28 marzo, 2018

    subiran la saga completa ??

    • Dracarys - 28 marzo, 2018

      si en unos dias