Iron Man (2008) Full 1080p Latino

1.849 vistas
1 estrella2 estrellas3 estrellas4 estrellas5 estrellas (3 votos, promedio: 5,00 de 5)
Cargando…

Información de Iron Man (2008) Full 1080p Latino

Datos de la película

  • Calidad: Full 1080p
  • Audio: Español Latino AC3 5.1 BLURAY - Ingles DTS 5.1 BLURAY
  • Subtitulos: Español Latino PGS - Ingles PGS
  • Resolución: 1920X1080
  • Formato: MKV
  • Codec: H.264
  • Encoder: Dpelis
  • Mediainfo: Clic para Mostrar Datos Ver
  • Format                                   : Matroska
    Format version                           : Version 4 / Version 2
    File size                                : 7.70 GiB
    Duration                                 : 2 h 6 min
    Overall bit rate                         : 8 748 kb/s
    Movie name                               : dpeliculashdmega.org
    Encoded date                             : UTC 2017-11-15 03:39:58 / UTC 2017-11-14T04:04:05Z
    Writing application                      : mkvmerge v15.0.0 ('Duel with the Devil') 64-bit
    Writing library                          : libebml v1.3.5 + libmatroska v1.4.5 / Lavf57.7.2

    Video
    ID                                       : 1
    Format                                   : AVC
    Format/Info                              : Advanced Video Codec
    Format profile                           : High@L4.1
    Format settings                          : CABAC / 4 Ref Frames
    Format settings, CABAC                   : Yes
    Format settings, RefFrames               : 4 frames
    Codec ID                                 : V_MPEG4/ISO/AVC
    Duration                                 : 2 h 6 min
    Bit rate                                 : 6 425 kb/s
    Width                                    : 1 920 pixels
    Height                                   : 1 080 pixels
    Display aspect ratio                     : 16:9
    Frame rate mode                          : Constant
    Frame rate                               : 23.976 (24000/1001) FPS
    Color space                              : YUV
    Chroma subsampling                       : 4:2:0
    Bit depth                                : 8 bits
    Scan type                                : Progressive
    Bits/(Pixel*Frame)                       : 0.129
    Stream size                              : 5.66 GiB (73%)
    Title                                    : Iron Man (2008) Full 1080p Latino
    Writing library                          : x264 core 148 r2708 86b7198
    Encoding settings                        : cabac=1 / ref=4 / deblock=1:0:0 / analyse=0x3:0x133 / me=esa / subme=10 / psy=1 / psy_rd=1.00:0.00 / mixed_ref=1 / me_range=24 / chroma_me=1 / trellis=2 / 8x8dct=1 / cqm=0 / deadzone=21,11 / fast_pskip=1 / chroma_qp_offset=-2 / threads=34 / lookahead_threads=5 / sliced_threads=0 / nr=0 / decimate=1 / interlaced=0 / bluray_compat=0 / constrained_intra=0 / bframes=8 / b_pyramid=2 / b_adapt=2 / b_bias=0 / direct=3 / weightb=1 / open_gop=0 / weightp=2 / keyint=240 / keyint_min=24 / scenecut=40 / intra_refresh=0 / rc_lookahead=60 / rc=crf / mbtree=1 / crf=20.0 / qcomp=0.60 / qpmin=0 / qpmax=69 / qpstep=4 / vbv_maxrate=62500 / vbv_bufsize=78125 / crf_max=0.0 / nal_hrd=none / filler=0 / ip_ratio=1.40 / aq=1:1.00
    Language                                 : English
    Default                                  : Yes
    Forced                                   : No
    Color range                              : Limited
    Color primaries                          : BT.709
    Transfer characteristics                 : BT.709
    Matrix coefficients                      : BT.709
    Statistics Tags Issue                    : mkvmerge v15.0.0 ('Duel with the Devil') 64-bit 2017-11-15 03:39:58 / mkvmerge v15.0.0 ('Duel with the Devil') 64-bit 2017-11-15 03:39:58 / UTC 2017-11-14T04:04:05Z
    FromStats_BitRate                        : 6587665
    FromStats_Duration                       : 02:06:01.679000000
    FromStats_FrameCount                     : 181299
    FromStats_StreamSize                     : 6226726841

    Audio #1
    ID                                       : 2
    Format                                   : AC-3
    Format/Info                              : Audio Coding 3
    Format settings, Endianness              : Big
    Codec ID                                 : A_AC3
    Duration                                 : 2 h 6 min
    Bit rate mode                            : Constant
    Bit rate                                 : 640 kb/s
    Channel(s)                               : 6 channels
    Channel positions                        : Front: L C R, Side: L R, LFE
    Sampling rate                            : 48.0 kHz
    Frame rate                               : 31.250 FPS (1536 SPF)
    Bit depth                                : 16 bits
    Compression mode                         : Lossy
    Stream size                              : 577 MiB (7%)
    Title                                    : Latino-AC3
    Language                                 : Spanish
    Service kind                             : Complete Main
    Default                                  : Yes
    Forced                                   : No
    Statistics Tags Issue                    : mkvmerge v15.0.0 ('Duel with the Devil') 64-bit 2017-11-15 03:39:58 / mkvmerge v15.0.0 ('Duel with the Devil') 64-bit 2017-11-15 03:39:58 / UTC 2017-11-14T04:04:05Z
    FromStats_BitRate                        : 640000
    FromStats_Duration                       : 02:06:01.696000000
    FromStats_FrameCount                     : 236303
    FromStats_StreamSize                     : 604935680

    Audio #2
    ID                                       : 3
    Format                                   : DTS
    Format/Info                              : Digital Theater Systems
    Mode                                     : 16
    Format settings, Endianness              : Big
    Codec ID                                 : A_DTS
    Duration                                 : 2 h 6 min
    Bit rate mode                            : Constant
    Bit rate                                 : 1 509 kb/s
    Channel(s)                               : 6 channels
    Channel positions                        : Front: L C R, Side: L R, LFE
    Sampling rate                            : 48.0 kHz
    Frame rate                               : 93.750 FPS (512 SPF)
    Bit depth                                : 24 bits
    Compression mode                         : Lossy
    Stream size                              : 1.33 GiB (17%)
    Title                                    : Ingles-DTS
    Language                                 : English
    Default                                  : No
    Forced                                   : No
    Statistics Tags Issue                    : mkvmerge v15.0.0 ('Duel with the Devil') 64-bit 2017-11-15 03:39:58 / mkvmerge v15.0.0 ('Duel with the Devil') 64-bit 2017-11-15 03:39:58 / UTC 2017-11-14T04:04:05Z
    FromStats_BitRate                        : 1508999
    FromStats_Duration                       : 02:06:01.718000000
    FromStats_FrameCount                     : 708911
    FromStats_StreamSize                     : 1426328932

    Text #1
    ID                                       : 4
    Format                                   : PGS
    Muxing mode                              : zlib
    Codec ID                                 : S_HDMV/PGS
    Codec ID/Info                            : Picture based subtitle format used on BDs/HD-DVDs
    Language                                 : English
    Default                                  : No
    Forced                                   : No
    Statistics Tags Issue                    : mkvmerge v15.0.0 ('Duel with the Devil') 64-bit 2017-11-15 03:39:58 / mkvmerge v15.0.0 ('Duel with the Devil') 64-bit 2017-11-15 03:39:58 / UTC 2017-11-14T04:04:05Z
    FromStats_BitRate                        : 683
    FromStats_Duration                       : 01:03:26.886000000
    FromStats_FrameCount                     : 74
    FromStats_StreamSize                     : 325095

    Text #2
    ID                                       : 5
    Format                                   : PGS
    Muxing mode                              : zlib
    Codec ID                                 : S_HDMV/PGS
    Codec ID/Info                            : Picture based subtitle format used on BDs/HD-DVDs
    Language                                 : Spanish
    Default                                  : No
    Forced                                   : No
    Statistics Tags Issue                    : mkvmerge v15.0.0 ('Duel with the Devil') 64-bit 2017-11-15 03:39:58 / mkvmerge v15.0.0 ('Duel with the Devil') 64-bit 2017-11-15 03:39:58 / UTC 2017-11-14T04:04:05Z
    FromStats_BitRate                        : 28590
    FromStats_Duration                       : 02:04:51.275000000
    FromStats_FrameCount                     : 2584
    FromStats_StreamSize                     : 26772007

    Menu
    00:00:00.000                             : :Start
    00:09:06.171                             : :Las Vegas
    00:18:00.580                             : :Puttering
    00:26:49.942                             : :Survived
    00:35:01.850                             : :The Plans
    00:43:15.259                             : :What Progress
    00:52:38.489                             : :Home
    00:59:24.644                             : :Pundits
    01:07:32.423                             : :Industry
    01:11:44.300                             : :Morning After
    01:18:31.207                             : :New Grids
    01:24:40.576                             : :Allies
    01:35:00.111                             : :Pepper:Accomplice
    01:44:29.346                             : :Old Inventions
    01:53:31.471                             : :Underpowered

  • Peso: 7.70 GiB

Sinopsis

Tony Stark, playboy multimillonario, es el dueño de Stark Industries, una importante empresa de armamento. Unos terroristas le secuestran y torturan para que fabrique para ellos un misil devastador. En vez de eso decide que su empresa dejará de fabricar armas, la deja en manos de Obadiah Stane, su hombre de confianza y él se dedica a construir una potente armadura. Pero Stane le traiciona y sigue fabricando armas.

Ficha técnica

Video trailer de la película

Enlaces de descarga

Rip de Bluray

Descargar Iron Man (2008) Full 1080p Latino




Aportes de DPeliculasHDmega la pass es:dpeliculashdmega.org Aportes de CinemaniaHD la pass es:cinemaniahdd.com

Películas relacionadas

  • Psychokinesis (2018) NF Web-dl 1080p Latino

    2018
    Psychokinesis (2018) NF Web-dl 1080p Latino

    0.0 1h 41m 2018

    Comedia coreana en la que un padre que se propone a salvar a su hija con unos superpoderes que acaba...

    Director: Yeon Sang-Ho

    Género: Acción

    Actores: Yoo Seung-mok

  • Mamá de alquiler (2008) Full 1080p Latino

    2008
    Mamá de alquiler (2008) Full 1080p Latino

    0.0 33h 28m 2008

    Una brillante mujer de negocios sueña con tener un hijo, pero descubre que no es fértil, por lo que...

    Director: Michael McCullers

    Género: Comedia

    Actores: Will Forte

  • Westworld T02E01 – Journey into night 1080p Latino

    2016
    Westworld T02E01 – Journey into night 1080p Latino

    0.0 1h 0m 2016

    Westworld, es un revolucionario parque de diversiones futurista, que emula un ambiente similar al Lejano...

    Director: Lisa Joy

    Género: Ciencia ficción

    Actores: Thandie Newton

  • La telaraña de Charlotte (2006) Full 1080p Latino

    2006
    La telaraña de Charlotte (2006) Full 1080p Latino

    0.0 1 h 36 min 2006

    Wilbur, un cerdito que vive en una granja, se entera de que su posible destino final es acabar en el...

    Director: Gary Winick

    Género: Comedia

    Actores: Thomas Haden Church

Comentarios 5
  • iDeztrukxion - 15 noviembre, 2017

    excelente! esperare que la suban a mega! =D

    • Dpelis2 pelis2 - 15 noviembre, 2017

      Ya subido MEGA.

      • jk2018 - 16 noviembre, 2017

        deberian ya no usar esa (&/%&$·”) de mega ..no le pongan importancia ya no sirve..

        • Dpelis2 pelis2 - 16 noviembre, 2017

          Mientras A algunas personas les sirva se seguirá subiendo. XD

    • josue - 15 noviembre, 2017

      Enserio descargas de mega como haces tienes cuenta? ni un giga por dia me permite en cambio e gogle drive nunca se me ha detenido una descarga.