JigSaw (2017) WEBDL 1080p Latino

3.142 vistas
1 estrella2 estrellas3 estrellas4 estrellas5 estrellas (Ninguna valoración todavía)
Cargando…

Información de JigSaw (2017) WEBDL 1080p Latino

Datos de la película

  • Calidad: WEBDL
  • Audio: Español Latino AC3 5.1 DVD - Ingles AC3 5.1 iTunes
  • Subtitulos: Español Latino SRT
  • Resolución: 1912x796p
  • Formato: MKV
  • Codec: H.264
  • Encoder: cinemaniahd
  • Mediainfo: Clic para Mostrar Datos Ver
  • Format                                   : Matroska
    Format version                           : Version 4 / Version 2
    File size                                : 3.49 GiB
    Duration                                 : 1 h 31 min
    Overall bit rate                         : 5 428 kb/s
    Movie name                               : CinemaniaHDD.COM
    Encoded date                             : UTC 2018-01-11 23:02:40
    Writing application                      : mkvmerge v15.0.0 ('Duel with the Devil') 64-bit
    Writing library                          : libebml v1.3.5 + libmatroska v1.4.5

    Video
    ID                                       : 1
    Format                                   : AVC
    Format/Info                              : Advanced Video Codec
    Format profile                           : High@L4
    Format settings                          : CABAC / 5 Ref Frames
    Format settings, CABAC                   : Yes
    Format settings, RefFrames               : 5 frames
    Codec ID                                 : V_MPEG4/ISO/AVC
    Duration                                 : 1 h 31 min
    Bit rate                                 : 4 594 kb/s
    Width                                    : 1 912 pixels
    Height                                   : 796 pixels
    Display aspect ratio                     : 2.40:1
    Frame rate mode                          : Constant
    Frame rate                               : 23.976 (24000/1001) FPS
    Color space                              : YUV
    Chroma subsampling                       : 4:2:0
    Bit depth                                : 8 bits
    Scan type                                : Progressive
    Bits/(Pixel*Frame)                       : 0.126
    Stream size                              : 2.95 GiB (85%)
    Language                                 : English
    Default                                  : Yes
    Forced                                   : No
    Color range                              : Limited
    Color primaries                          : BT.709
    Transfer characteristics                 : BT.709
    Matrix coefficients                      : BT.709

    Audio #1
    ID                                       : 2
    Format                                   : AC-3
    Format/Info                              : Audio Coding 3
    Format settings, Endianness              : Big
    Codec ID                                 : A_AC3
    Duration                                 : 1 h 31 min
    Bit rate mode                            : Constant
    Bit rate                                 : 448 kb/s
    Channel(s)                               : 6 channels
    Channel positions                        : Front: L C R, Side: L R, LFE
    Sampling rate                            : 48.0 kHz
    Frame rate                               : 31.250 FPS (1536 SPF)
    Bit depth                                : 16 bits
    Compression mode                         : Lossy
    Delay relative to video                  : -42 ms
    Stream size                              : 295 MiB (8%)
    Language                                 : Spanish
    Service kind                             : Complete Main
    Default                                  : Yes
    Forced                                   : No

    Audio #2
    ID                                       : 3
    Format                                   : AC-3
    Format/Info                              : Audio Coding 3
    Format settings, Endianness              : Big
    Codec ID                                 : A_AC3
    Duration                                 : 1 h 31 min
    Bit rate mode                            : Constant
    Bit rate                                 : 384 kb/s
    Channel(s)                               : 6 channels
    Channel positions                        : Front: L C R, Side: L R, LFE
    Sampling rate                            : 48.0 kHz
    Frame rate                               : 31.250 FPS (1536 SPF)
    Bit depth                                : 16 bits
    Compression mode                         : Lossy
    Delay relative to video                  : -42 ms
    Stream size                              : 253 MiB (7%)
    Language                                 : English
    Service kind                             : Complete Main
    Default                                  : No
    Forced                                   : No

    Text #1
    ID                                       : 4
    Format                                   : UTF-8
    Codec ID                                 : S_TEXT/UTF8
    Codec ID/Info                            : UTF-8 Plain Text
    Duration                                 : 1 h 25 min
    Bit rate                                 : 59 b/s
    Count of elements                        : 1244
    Stream size                              : 37.2 KiB (0%)
    Language                                 : Spanish
    Default                                  : Yes
    Forced                                   : No

    Text #2
    ID                                       : 5
    Format                                   : UTF-8
    Codec ID                                 : S_TEXT/UTF8
    Codec ID/Info                            : UTF-8 Plain Text
    Duration                                 : 1 h 25 min
    Bit rate                                 : 59 b/s
    Count of elements                        : 1244
    Stream size                              : 37.2 KiB (0%)
    Language                                 : Spanish
    Default                                  : No
    Forced                                   : No

    Menu
    00:00:00.000                             : en:1
    00:10:40.000                             : en:2
    00:22:40.000                             : en:3
    00:31:30.000                             : en:4
    00:43:10.000                             : en:5
    00:52:59.000                             : en:6
    01:04:14.000                             : en:7
    01:13:58.000                             : en:8
    01:25:00.000                             : en:9

     

  • Peso: 3.49 GiB

Sinopsis

¿Estaremos más cerca de conocer el desenlace de los macabros planes ideados por Jigsaw? Octava entrega de una de las sagas más terroríficas de los últimos tiempos. El filme lo dirigen los hermanos Michael y Peter Spierig (Predestination, Los no muertos). Por su parte, los guionistas Josh Stolberg (Piraña 3D, Hermandad de sangre) y Peter Goldfinger (Hermandad de sangre, Eight Days a Week) firman el libreto de este proyecto que cuenta con el apoyo de los creadores del film original, James Wan (Expediente Warren: El caso Enfield, Insidious: Capítulo 2) y Leigh Whannell (Stem, Insidious: Capítulo 3), implicados como productores ejecutivos. Los actores protagonistas son Laura Vandervoort (Con Man, Supergirl) y Tobin Bell (The Flash, Manson Family Vacation), nuevamente en el escalofriante papel de John Kramer más conocido como Jigsaw.

 

Audio Latino 5.1 DVD

Ficha técnica

Video trailer de la película

Enlaces de descarga

Rip de Bluray

Descargar JigSaw (2017) WEBDL 1080p Latino




Aportes de DPeliculasHDmega la pass es:dpeliculashdmega.org Aportes de CinemaniaHD la pass es:cinemaniahdd.com
Guardado en : Suspense , Terror

Películas relacionadas

  • Para atrapar al ladrón (1955) Full 1080p Latino

    1955
    Para atrapar al ladrón (1955) Full 1080p Latino

    0.0 1h 46m 1955

    A pesar de que John Robie "El Gato" (Cary Grant) es un ladrón de joyas reformado, se convierte en el...

    Director: Alfred Hitchcock

    Género: Crimen

    Actores: William 'Wee Willie' Davis

  • Hangman (2017) 1080p Latino

    2017
    Hangman (2017) 1080p Latino

    0.0 2h 0m 2017

    Archer es un detective de homicidios (Al Pacino) que se une a un detective de crímenes comunes (Urban)...

    Director: Marc Dahlstrom

    Género: Crimen

    Actores: Steve Coulter

  • Bushwick (2017) 1080p Latino

    2017
    Bushwick (2017) 1080p Latino

    5.0 1h 34m 2017

    Cuando Lucy sale del metro en Bushwick, el último barrio de moda de Nueva York, no encuentra ni hipsters...

    Director: Jonathan Milott

    Género: Acción

    Actores: Myra Lucretia Taylor

  • Deep Blue Sea 2 (2018) 1080p Latino

    2018
    Deep Blue Sea 2 (2018) 1080p Latino

    5.0 1h 34m 2018

    La Doctora Misty Calhoun, conservacionista de tiburones, es invitada para asesorar un proyecto secreto...

    Director: Darin Scott

    Género: Acción

    Actores: Rob Mayes

  • Maze Runner prueba de fuego (2015) Full 1080p Latino

    2015
    Maze Runner prueba de fuego (2015) Full 1080p Latino

    5.0 2 h 11 min 2015

    En este nuevo capítulo de la trepidante saga "El Corredor del Laberinto", Thomas (Dylan O'Brien) y el...

    Director: Wes Ball

    Género: Acción

    Actores: Thomas Brodie-Sangster

Comentarios 12
  • Fernando Alvarez - 12 enero, 2018

    Alguien que me diga que tal es el audio?

    • dpelis - 12 enero, 2018

      es audio DVD en la descripcion dice. Nunca subimos audios CAM

  • Roberto - 10 enero, 2018

    podrian resubirla a mega por favor

    • dpelis - 11 enero, 2018

      estan agregados.

  • angel - 10 enero, 2018

    por favor subirían de nuevo la saga completa por googledrive

    • dpelis - 10 enero, 2018

      se agregara esta semana

      • JOHNSON2018 - 12 enero, 2018

        si es posible en psg seria bueno talves que no pensen 7 para abajo seria bueno.. gracias..

        • Dpelis2 - 12 enero, 2018

          Solo las versiones plateadas van con PGS siempre y cuando el bluray tengas dichos PGS en latino o español. Saludos

  • Betasigma1 - 09 enero, 2018

    Sinceramente es algo que no me esperaba, no estaba informado de que habia una nueva entrega de esta saga.
    Espero que salgas en latino, no quiero perderme detalles, al menos los menos posibles.

    • dpelis - 10 enero, 2018

      esperemos que pronto este, saludos

  • cristian - 09 enero, 2018

    buena tarde que paso con la pagina de facebook la inhabilitaron también para preguntar de la pelicula duro de cuidar cuando la pondrán