La bella durmiente (1959) Full 1080p Latino

757 vistas
1 estrella2 estrellas3 estrellas4 estrellas5 estrellas (Ninguna valoración todavía)
Cargando…

Información de La bella durmiente (1959) Full 1080p Latino

Datos de la película

  • Calidad: Full 1080p
  • Audio: Español Latino AC3 5.1 BLURAY - Ingles DTS 5.1 BLURAY
  • Subtitulos: Español Latino PGS - Ingles PGS
  • Resolución: 1920x1080p
  • Formato: MKV
  • Codec: H.264
  • Encoder: Dracarys
  • Mediainfo: Clic para Mostrar Datos Ver
  • Format                                   : Matroska
    Format version                           : Version 4 / Version 2
    File size                                : 2.76 GiB
    Duration                                 : 1 h 15 min
    Overall bit rate                         : 5 262 kb/s
    Movie name                               : CinemaniaHDD.com
    Encoded date                             : UTC 2018-03-28 03:47:56 / UTC 2018-03-28T01:27:01Z
    Writing application                      : mkvmerge v15.0.0 ('Duel with the Devil') 64-bit
    Writing library                          : libebml v1.3.5 + libmatroska v1.4.5 / Lavf57.7.2

    Video
    ID                                       : 1
    Format                                   : AVC
    Format/Info                              : Advanced Video Codec
    Format profile                           : High@L4.1
    Format settings                          : CABAC / 4 Ref Frames
    Format settings, CABAC                   : Yes
    Format settings, RefFrames               : 4 frames
    Codec ID                                 : V_MPEG4/ISO/AVC
    Duration                                 : 1 h 15 min
    Bit rate                                 : 3 009 kb/s
    Width                                    : 1 920 pixels
    Height                                   : 1 080 pixels
    Display aspect ratio                     : 16:9
    Frame rate mode                          : Constant
    Frame rate                               : 23.976 (24000/1001) FPS
    Color space                              : YUV
    Chroma subsampling                       : 4:2:0
    Bit depth                                : 8 bits
    Scan type                                : Progressive
    Bits/(Pixel*Frame)                       : 0.061
    Stream size                              : 1.58 GiB (57%)
    Title                                    : La bella durmiente (1959) Full 1080p Latino
    Writing library                          : x264 core 148 r2708 86b7198
    Encoding settings                        : cabac=1 / ref=4 / deblock=1:0:0 / analyse=0x3:0x133 / me=esa / subme=9 / psy=1 / psy_rd=1.00:0.00 / mixed_ref=1 / me_range=16 / chroma_me=1 / trellis=2 / 8x8dct=1 / cqm=0 / deadzone=21,11 / fast_pskip=1 / chroma_qp_offset=-2 / threads=34 / lookahead_threads=2 / sliced_threads=0 / nr=0 / decimate=1 / interlaced=0 / bluray_compat=0 / constrained_intra=0 / bframes=3 / b_pyramid=2 / b_adapt=2 / b_bias=0 / direct=3 / weightb=1 / open_gop=0 / weightp=2 / keyint=240 / keyint_min=24 / scenecut=40 / intra_refresh=0 / rc_lookahead=60 / rc=crf / mbtree=1 / crf=20.0 / qcomp=0.60 / qpmin=0 / qpmax=69 / qpstep=4 / vbv_maxrate=62500 / vbv_bufsize=78125 / crf_max=0.0 / nal_hrd=none / filler=0 / ip_ratio=1.40 / aq=1:1.00
    Language                                 : English
    Default                                  : Yes
    Forced                                   : No
    Color range                              : Limited
    Color primaries                          : BT.709
    Transfer characteristics                 : BT.709
    Matrix coefficients                      : BT.709
    Statistics Tags Issue                    : mkvmerge v15.0.0 ('Duel with the Devil') 64-bit 2018-03-28 03:47:56 / mkvmerge v15.0.0 ('Duel with the Devil') 64-bit 2018-03-28 03:47:56 / UTC 2018-03-28T01:27:01Z
    FromStats_BitRate                        : 3093323
    FromStats_Duration                       : 01:15:10.048000000
    FromStats_FrameCount                     : 108133
    FromStats_StreamSize                     : 1743879442

    Audio #1
    ID                                       : 2
    Format                                   : AC-3
    Format/Info                              : Audio Coding 3
    Format settings, Endianness              : Big
    Codec ID                                 : A_AC3
    Duration                                 : 1 h 15 min
    Bit rate mode                            : Constant
    Bit rate                                 : 640 kb/s
    Channel(s)                               : 6 channels
    Channel positions                        : Front: L C R, Side: L R, LFE
    Sampling rate                            : 48.0 kHz
    Frame rate                               : 31.250 FPS (1536 SPF)
    Bit depth                                : 16 bits
    Compression mode                         : Lossy
    Stream size                              : 344 MiB (12%)
    Language                                 : Spanish
    Service kind                             : Complete Main
    Default                                  : Yes
    Forced                                   : No
    Statistics Tags Issue                    : mkvmerge v15.0.0 ('Duel with the Devil') 64-bit 2018-03-28 03:47:56 / mkvmerge v15.0.0 ('Duel with the Devil') 64-bit 2018-03-28 03:47:56 / UTC 2018-03-28T01:27:01Z
    FromStats_BitRate                        : 640000
    FromStats_Duration                       : 01:15:10.112000000
    FromStats_FrameCount                     : 140941
    FromStats_StreamSize                     : 360808960

    Audio #2
    ID                                       : 3
    Format                                   : DTS
    Format/Info                              : Digital Theater Systems
    Mode                                     : 16
    Format settings, Endianness              : Big
    Codec ID                                 : A_DTS
    Duration                                 : 1 h 15 min
    Bit rate mode                            : Constant
    Bit rate                                 : 1 509 kb/s
    Channel(s)                               : 6 channels
    Channel positions                        : Front: L C R, Side: L R, LFE
    Sampling rate                            : 48.0 kHz
    Frame rate                               : 93.750 FPS (512 SPF)
    Bit depth                                : 16 bits
    Compression mode                         : Lossy
    Stream size                              : 811 MiB (29%)
    Language                                 : English
    Default                                  : No
    Forced                                   : No
    Statistics Tags Issue                    : mkvmerge v15.0.0 ('Duel with the Devil') 64-bit 2018-03-28 03:47:56 / mkvmerge v15.0.0 ('Duel with the Devil') 64-bit 2018-03-28 03:47:56 / UTC 2018-03-28T01:27:01Z
    FromStats_BitRate                        : 1509000
    FromStats_Duration                       : 01:15:10.080000000
    FromStats_FrameCount                     : 422820
    FromStats_StreamSize                     : 850713840

    Text #1
    ID                                       : 4
    Format                                   : PGS
    Muxing mode                              : zlib
    Codec ID                                 : S_HDMV/PGS
    Codec ID/Info                            : Picture based subtitle format used on BDs/HD-DVDs
    Language                                 : English
    Default                                  : No
    Forced                                   : No
    Statistics Tags Issue                    : mkvmerge v15.0.0 ('Duel with the Devil') 64-bit 2018-03-28 03:47:56 / mkvmerge v15.0.0 ('Duel with the Devil') 64-bit 2018-03-28 03:47:56 / UTC 2018-03-28T01:27:01Z
    FromStats_BitRate                        : 31841
    FromStats_Duration                       : 01:14:39.392000000
    FromStats_FrameCount                     : 1956
    FromStats_StreamSize                     : 17828567

    Text #2
    ID                                       : 5
    Format                                   : PGS
    Muxing mode                              : zlib
    Codec ID                                 : S_HDMV/PGS
    Codec ID/Info                            : Picture based subtitle format used on BDs/HD-DVDs
    Language                                 : Spanish
    Default                                  : No
    Forced                                   : No
    Statistics Tags Issue                    : mkvmerge v15.0.0 ('Duel with the Devil') 64-bit 2018-03-28 03:47:56 / mkvmerge v15.0.0 ('Duel with the Devil') 64-bit 2018-03-28 03:47:56 / UTC 2018-03-28T01:27:01Z
    FromStats_BitRate                        : 24989
    FromStats_Duration                       : 01:14:40.810000000
    FromStats_FrameCount                     : 1154
    FromStats_StreamSize                     : 13996753

    Menu
    00:00:00.000                             : :Chapter 1
    00:01:47.316                             : :Chapter 2
    00:02:57.844                             : :Chapter 3
    00:04:55.462                             : :Chapter 4
    00:05:51.059                             : :Chapter 5
    00:07:37.791                             : :Chapter 6
    00:09:54.928                             : :Chapter 7
    00:11:44.078                             : :Chapter 8
    00:15:42.775                             : :Chapter 9
    00:17:47.316                             : :Chapter 10
    00:22:40.526                             : :Chapter 11
    00:24:15.454                             : :Chapter 12
    00:25:34.783                             : :Chapter 13
    00:29:42.281                             : :Chapter 14
    00:33:04.357                             : :Chapter 15
    00:36:01.951                             : :Chapter 16
    00:40:21.878                             : :Chapter 17
    00:44:22.160                             : :Chapter 18
    00:46:40.006                             : :Chapter 19
    00:48:26.570                             : :Chapter 20
    00:52:09.126                             : :Chapter 21
    00:53:43.262                             : :Chapter 22
    00:56:33.724                             : :Chapter 23
    00:58:51.194                             : :Chapter 24
    01:02:10.977                             : :Chapter 25
    01:05:25.046                             : :Chapter 26
    01:07:44.811                             : :Chapter 27
    01:08:49.876                             : :Chapter 28
    01:10:45.491                             : :Chapter 29
    01:12:24.090                             : :Chapter 30

  • Peso: 2.76 GiB

Sinopsis

Había una vez dos reyes que esperaban con alegría el nacimiento de su primera hija, a la que llamarían Aurora. Para celebrarlo, organizaron una fiesta a la que invitaron a todos los habitantes del reino. Pero olvidaron invitar a la malvada bruja Maléfica que, enfurecida, lanzó un terrible hechizo sobre la princesa: el día de su décimosexto cumpleaños, se pincharía con el uso de una rueca y moriría. Pero sus tres divertidas hadas madrinas descubren una forma de romper el maleficio: no morirá, permanecerá dormida hasta que un valiente príncipe la bese…

Ficha técnica

Video trailer de la película

Enlaces de descarga

Rip de Bluray

Descargar La bella durmiente (1959) Full 1080p Latino




Aportes de DPeliculasHDmega la pass es:dpeliculashdmega.org Aportes de CinemaniaHD la pass es:cinemaniahdd.com

Películas relacionadas

  • A Ghost Story (2017) 1080p Latino

    2017
    A Ghost Story (2017) 1080p Latino

    5.0 1h 27m 2017

    Un hombre recientemente fallecido regresa a su casa como un fantasma vestido con una sábana blanca para...

    Director: David Lowery

    Género: Drama

    Actores: Yasmina Gutierrez

  • Maze Runner prueba de fuego (2015) Full 1080p Latino

    2015
    Maze Runner prueba de fuego (2015) Full 1080p Latino

    5.0 2 h 11 min 2015

    En este nuevo capítulo de la trepidante saga "El Corredor del Laberinto", Thomas (Dylan O'Brien) y el...

    Director: Wes Ball

    Género: Acción

    Actores: Thomas Brodie-Sangster

  • Maze Runner correr o morir (2014) Full 1080p Latino

    2014
    Maze Runner correr o morir (2014) Full 1080p Latino

    5.0 1 h 53 min 2014

    Thomas abre los ojos y se da cuenta que está en un ascensor. Lo extraño es que no recuerda nada, ni...

    Director: Wes Ball

    Género: Acción

    Actores: Will Poulter

  • Se dice de mí (2010) Full 1080p Latino

    2010
    Se dice de mí (2010) Full 1080p Latino

    5.0 1 h 32 min 2010

    El guión, obra del dramaturgo Bert V. Royal, es una versión moderna y en clave estudiantil de “La...

    Director: Will Sandoval

    Género: Comedia

    Actores: Zack Kennedy

  • Rebeldes con causa (2007) Full 1080p Latino

    2007
    Rebeldes con causa (2007) Full 1080p Latino

    5.0 1h 39m 2007

    Cuatro amigos de mediana edad (Travolta, Allen, Lawrence y H. Macy), entusiastas de las motos, deciden...

    Director: Walt Becker

    Género: Acción

    Actores: William H. Macy

Comentarios 1
  • Tio Higuera - 29 marzo, 2018

    Buena pelicula, gracias.
    tendrán la de “Maleficent” ? cuando puedan la suben. saludos.