La Era de Hielo (2002) Full 1080p Latino

590 vistas
1 estrella2 estrellas3 estrellas4 estrellas5 estrellas (Ninguna valoración todavía)
Cargando…

Información de La Era de Hielo (2002) Full 1080p Latino

Datos de la película

  • Calidad: Full 1080p
  • Audio: Español Latino AC3 5.1 BLURAY - Ingles DTS 5.1 BLURAY
  • Subtitulos: Español Latino PGS - Ingles PGS
  • Resolución: 1920x1080p
  • Formato: MKV
  • Codec: H.264
  • Encoder: Dracarys
  • Mediainfo: Clic para Mostrar Datos Ver
  • Format                                   : Matroska
    Format version                           : Version 4 / Version 2
    File size                                : 3.37 GiB
    Duration                                 : 1 h 21 min
    Overall bit rate                         : 5 948 kb/s
    Movie name                               : CinemaniaHDD.com
    Encoded date                             : UTC 2018-03-22 18:19:51 / UTC 2018-03-20T23:48:45Z
    Writing application                      : mkvmerge v15.0.0 ('Duel with the Devil') 64-bit
    Writing library                          : libebml v1.3.5 + libmatroska v1.4.5 / Lavf57.7.2

    Video
    ID                                       : 1
    Format                                   : AVC
    Format/Info                              : Advanced Video Codec
    Format profile                           : High@L4.1
    Format settings                          : CABAC / 4 Ref Frames
    Format settings, CABAC                   : Yes
    Format settings, RefFrames               : 4 frames
    Codec ID                                 : V_MPEG4/ISO/AVC
    Duration                                 : 1 h 21 min
    Bit rate                                 : 3 873 kb/s
    Width                                    : 1 920 pixels
    Height                                   : 1 080 pixels
    Display aspect ratio                     : 16:9
    Frame rate mode                          : Constant
    Frame rate                               : 23.976 (24000/1001) FPS
    Color space                              : YUV
    Chroma subsampling                       : 4:2:0
    Bit depth                                : 8 bits
    Scan type                                : Progressive
    Bits/(Pixel*Frame)                       : 0.078
    Stream size                              : 2.20 GiB (65%)
    Title                                    : La Era de Hielo (2002) Full 1080p Latino
    Writing library                          : x264 core 148 r2708 86b7198
    Encoding settings                        : cabac=1 / ref=4 / deblock=1:0:0 / analyse=0x3:0x133 / me=esa / subme=9 / psy=1 / psy_rd=1.00:0.00 / mixed_ref=1 / me_range=16 / chroma_me=1 / trellis=2 / 8x8dct=1 / cqm=0 / deadzone=21,11 / fast_pskip=1 / chroma_qp_offset=-2 / threads=34 / lookahead_threads=2 / sliced_threads=0 / nr=0 / decimate=1 / interlaced=0 / bluray_compat=0 / constrained_intra=0 / bframes=3 / b_pyramid=2 / b_adapt=2 / b_bias=0 / direct=3 / weightb=1 / open_gop=0 / weightp=2 / keyint=240 / keyint_min=24 / scenecut=40 / intra_refresh=0 / rc_lookahead=60 / rc=crf / mbtree=1 / crf=20.0 / qcomp=0.60 / qpmin=0 / qpmax=69 / qpstep=4 / vbv_maxrate=62500 / vbv_bufsize=78125 / crf_max=0.0 / nal_hrd=none / filler=0 / ip_ratio=1.40 / aq=1:1.00
    Language                                 : English
    Default                                  : Yes
    Forced                                   : No
    Color range                              : Limited
    Color primaries                          : BT.709
    Transfer characteristics                 : BT.709
    Matrix coefficients                      : BT.709
    Statistics Tags Issue                    : mkvmerge v15.0.0 ('Duel with the Devil') 64-bit 2018-03-22 18:19:51 / mkvmerge v15.0.0 ('Duel with the Devil') 64-bit 2018-03-22 18:19:51 / UTC 2018-03-20T23:48:45Z
    FromStats_BitRate                        : 3976400
    FromStats_Duration                       : 01:21:09.865000000
    FromStats_FrameCount                     : 116760
    FromStats_StreamSize                     : 2420566401

    Audio #1
    ID                                       : 2
    Format                                   : AC-3
    Format/Info                              : Audio Coding 3
    Format settings, Endianness              : Big
    Codec ID                                 : A_AC3
    Duration                                 : 1 h 21 min
    Bit rate mode                            : Constant
    Bit rate                                 : 448 kb/s
    Channel(s)                               : 6 channels
    Channel positions                        : Front: L C R, Side: L R, LFE
    Sampling rate                            : 48.0 kHz
    Frame rate                               : 31.250 FPS (1536 SPF)
    Bit depth                                : 16 bits
    Compression mode                         : Lossy
    Stream size                              : 260 MiB (8%)
    Language                                 : Spanish
    Service kind                             : Complete Main
    Default                                  : Yes
    Forced                                   : No
    Statistics Tags Issue                    : mkvmerge v15.0.0 ('Duel with the Devil') 64-bit 2018-03-22 18:19:51 / mkvmerge v15.0.0 ('Duel with the Devil') 64-bit 2018-03-22 18:19:51 / UTC 2018-03-20T23:48:45Z
    FromStats_BitRate                        : 448000
    FromStats_Duration                       : 01:21:09.920000000
    FromStats_FrameCount                     : 152185
    FromStats_StreamSize                     : 272715520

    Audio #2
    ID                                       : 3
    Format                                   : DTS
    Format/Info                              : Digital Theater Systems
    Mode                                     : 16
    Format settings, Endianness              : Big
    Codec ID                                 : A_DTS
    Duration                                 : 1 h 21 min
    Bit rate mode                            : Constant
    Bit rate                                 : 1 509 kb/s
    Channel(s)                               : 6 channels
    Channel positions                        : Front: L C R, Side: L R, LFE
    Sampling rate                            : 48.0 kHz
    Frame rate                               : 93.750 FPS (512 SPF)
    Bit depth                                : 24 bits
    Compression mode                         : Lossy
    Stream size                              : 876 MiB (25%)
    Language                                 : English
    Default                                  : No
    Forced                                   : No
    Statistics Tags Issue                    : mkvmerge v15.0.0 ('Duel with the Devil') 64-bit 2018-03-22 18:19:51 / mkvmerge v15.0.0 ('Duel with the Devil') 64-bit 2018-03-22 18:19:51 / UTC 2018-03-20T23:48:45Z
    FromStats_BitRate                        : 1508999
    FromStats_Duration                       : 01:21:09.899000000
    FromStats_FrameCount                     : 456553
    FromStats_StreamSize                     : 918584636

    Text #1
    ID                                       : 4
    Format                                   : PGS
    Muxing mode                              : zlib
    Codec ID                                 : S_HDMV/PGS
    Codec ID/Info                            : Picture based subtitle format used on BDs/HD-DVDs
    Language                                 : English
    Default                                  : No
    Forced                                   : No
    Statistics Tags Issue                    : mkvmerge v15.0.0 ('Duel with the Devil') 64-bit 2018-03-22 18:19:51 / mkvmerge v15.0.0 ('Duel with the Devil') 64-bit 2018-03-22 18:19:51 / UTC 2018-03-20T23:48:45Z
    FromStats_BitRate                        : 23898
    FromStats_Duration                       : 01:17:09.250000000
    FromStats_FrameCount                     : 1152
    FromStats_StreamSize                     : 13829227

    Text #2
    ID                                       : 5
    Format                                   : PGS
    Muxing mode                              : zlib
    Codec ID                                 : S_HDMV/PGS
    Codec ID/Info                            : Picture based subtitle format used on BDs/HD-DVDs
    Language                                 : Spanish
    Default                                  : No
    Forced                                   : No
    Statistics Tags Issue                    : mkvmerge v15.0.0 ('Duel with the Devil') 64-bit 2018-03-22 18:19:51 / mkvmerge v15.0.0 ('Duel with the Devil') 64-bit 2018-03-22 18:19:51 / UTC 2018-03-20T23:48:45Z
    FromStats_BitRate                        : 23054
    FromStats_Duration                       : 01:17:08.999000000
    FromStats_FrameCount                     : 1086
    FromStats_StreamSize                     : 13339672

    Menu
    00:00:00.000                             : :Chapter 1
    00:03:52.441                             : :Chapter 2
    00:05:21.363                             : :Chapter 3
    00:09:31.488                             : :Chapter 4
    00:14:41.672                             : :Chapter 5
    00:17:47.775                             : :Chapter 6
    00:25:23.689                             : :Chapter 7
    00:27:41.326                             : :Chapter 8
    00:31:26.802                             : :Chapter 9
    00:34:59.931                             : :Chapter 10
    00:42:27.336                             : :Chapter 11
    00:48:15.476                             : :Chapter 12
    00:51:49.982                             : :Chapter 13
    00:53:00.052                             : :Chapter 14
    00:56:03.443                             : :Chapter 15
    00:57:05.881                             : :Chapter 16
    01:00:22.119                             : :Chapter 17
    01:08:13.756                             : :Chapter 18
    01:13:31.824                             : :Chapter 19
    01:15:26.480                             : :Chapter 20

  • Peso: 3.37 GiB

Sinopsis

Hace muchos, muchos años, tantos como 20.000, una pequeña ardirata de nombre Scrat quería esconder una bellota en el hielo. Pero lo que hace es provocar una semicatástrofe que provoca que todos los animales migren hacia el sur, hacia tierras más cálidas. Bueno, lo que se dice todos, todos, no. Porque hay uno que lleva la contraria: se trata del mamut Manfred, un auténtico lobo solitario vagabundo y soberbio que va hacia el norte sólo porque los demás están yendo hacia el sur.

Ficha técnica

Video trailer de la película

Enlaces de descarga

Rip de Bluray

Descargar La Era de Hielo (2002) Full 1080p Latino




Aportes de DPeliculasHDmega la pass es:dpeliculashdmega.org Aportes de CinemaniaHD la pass es:cinemaniahdd.com

Películas relacionadas

  • Gun shy (2017) 1080p Latino

    2017
    Gun shy (2017) 1080p Latino

    0.0 1h 31m 2017

    Basada en la novela homónima de Mark Haskell Smith. Turk Henry es una antigua estrella de rock con sobrepeso...

    Director: Simon West

    Género: Acción

    Actores: Sebastián Apiolaza

  • Maze Runner prueba de fuego (2015) Full 1080p Latino

    2015
    Maze Runner prueba de fuego (2015) Full 1080p Latino

    5.0 2 h 11 min 2015

    En este nuevo capítulo de la trepidante saga "El Corredor del Laberinto", Thomas (Dylan O'Brien) y el...

    Director: Wes Ball

    Género: Acción

    Actores: Thomas Brodie-Sangster

  • Maze Runner correr o morir (2014) Full 1080p Latino

    2014
    Maze Runner correr o morir (2014) Full 1080p Latino

    5.0 1 h 53 min 2014

    Thomas abre los ojos y se da cuenta que está en un ascensor. Lo extraño es que no recuerda nada, ni...

    Director: Wes Ball

    Género: Acción

    Actores: Will Poulter

  • Se dice de mí (2010) Full 1080p Latino

    2010
    Se dice de mí (2010) Full 1080p Latino

    5.0 1 h 32 min 2010

    El guión, obra del dramaturgo Bert V. Royal, es una versión moderna y en clave estudiantil de “La...

    Director: Will Sandoval

    Género: Comedia

    Actores: Zack Kennedy

  • Rebeldes con causa (2007) Full 1080p Latino

    2007
    Rebeldes con causa (2007) Full 1080p Latino

    5.0 1h 39m 2007

    Cuatro amigos de mediana edad (Travolta, Allen, Lawrence y H. Macy), entusiastas de las motos, deciden...

    Director: Walt Becker

    Género: Acción

    Actores: William H. Macy

Comentarios 0