Ladronas de Almas (2015) WEB-DL 1080p Latino

758 vistas
1 estrella2 estrellas3 estrellas4 estrellas5 estrellas (Ninguna valoración todavía)
Cargando…

Información de Ladronas de Almas (2015) WEB-DL 1080p Latino

Datos de la película

  • Calidad: WEBDL
  • Audio: Se especifica abajo de la Sinopsis
  • Subtitulos: No
  • Resolución: 1908X854
  • Formato: MKV
  • Codec: H.264
  • Encoder: Dpelis
  • Mediainfo: Clic para Mostrar Datos Ver
  • Format                                   : Matroska
    Format version                           : Version 4 / Version 2
    File size                                : 2.95 GiB
    Duration                                 : 1 h 28 min
    Overall bit rate                         : 4 788 kb/s
    Movie name                               : dpeliculashdmega.org
    Encoded date                             : UTC 2017-11-01 20:47:04
    Writing application                      : mkvmerge v6.7.0 ('Back to the Ground') 32bit built on Jan  8 2014 15:03:17
    Writing library                          : libebml v1.3.0 + libmatroska v1.4.1

    Video
    ID                                       : 1
    Format                                   : AVC
    Format/Info                              : Advanced Video Codec
    Format profile                           : High@L4
    Format settings                          : CABAC / 5 Ref Frames
    Format settings, CABAC                   : Yes
    Format settings, RefFrames               : 5 frames
    Codec ID                                 : V_MPEG4/ISO/AVC
    Duration                                 : 1 h 28 min
    Bit rate                                 : 4 500 kb/s
    Width                                    : 1 908 pixels
    Height                                   : 854 pixels
    Display aspect ratio                     : 2.25:1
    Frame rate mode                          : Constant
    Frame rate                               : 24.000 FPS
    Color space                              : YUV
    Chroma subsampling                       : 4:2:0
    Bit depth                                : 8 bits
    Scan type                                : Progressive
    Bits/(Pixel*Frame)                       : 0.115
    Stream size                              : 2.78 GiB (94%)
    Title                                    : Ladronas de Almas (2015) WEB-DL 1080p Latino
    Language                                 : English
    Default                                  : Yes
    Forced                                   : No
    Color range                              : Limited
    Color primaries                          : BT.709
    Transfer characteristics                 : BT.709
    Matrix coefficients                      : BT.709

    Audio
    ID                                       : 2
    Format                                   : AC-3
    Format/Info                              : Audio Coding 3
    Format settings, Endianness              : Big
    Codec ID                                 : A_AC3
    Duration                                 : 1 h 28 min
    Bit rate mode                            : Constant
    Bit rate                                 : 192 kb/s
    Channel(s)                               : 2 channels
    Channel positions                        : Front: L R
    Sampling rate                            : 48.0 kHz
    Frame rate                               : 31.250 FPS (1536 SPF)
    Bit depth                                : 16 bits
    Compression mode                         : Lossy
    Stream size                              : 121 MiB (4%)
    Title                                    : Latino-AC3
    Language                                 : Spanish
    Service kind                             : Complete Main
    Default                                  : Yes
    Forced                                   : No

    Menu
    00:00:00.000                             : en:1
    00:15:04.208                             : en:2
    00:28:37.583                             : en:3
    00:42:03.416                             : en:4
    00:54:16.332                             : en:5
    01:08:02.290                             : en:6
    01:20:55.998                             : en:7

  • Peso: 2.91 GiB

Sinopsis

En el año de nuestro señor 1815, en una desolada hacienda en el punto más recóndito de la Nueva España, una afligida familia que ha padecido los estragos de la guerra, da refugio a un grupo de supuestos insurgentes que por su ambición vivirán un sangriento calvario. Serán perseguidos, cazados, torturados, maldecidos y zombificados a manos de las indefensas hermanas Cordero. Una historia que se desarrolla en una realidad alterna en la época de independencia.

 

 

Audio Latino- AC3 WEB.DL

Ficha técnica

  • Titulo original: Ladronas de Almas
  • Fecha de lanzamiento: 01-10-2015 (Mexico)
  • Director: Juan Antonio de la Riva
  • Género: Terror
  • Puntuación: 0.0 0 votos
  • Duración:
    1 h 28 min

Video trailer de la película

Enlaces de descarga

Rip de Bluray

Descargar Ladronas de Almas (2015) WEB-DL 1080p Latino




Aportes de DPeliculasHDmega la pass es:dpeliculashdmega.org Aportes de CinemaniaHD la pass es:cinemaniahdd.com
Guardado en : Terror

Películas relacionadas

  • Deep Blue Sea 2 (2018) 1080p Latino

    2018
    Deep Blue Sea 2 (2018) 1080p Latino

    5.0 1h 34m 2018

    La Doctora Misty Calhoun, conservacionista de tiburones, es invitada para asesorar un proyecto secreto...

    Director: Darin Scott

    Género: Acción

    Actores: Rob Mayes

  • La invención de Cronos (1993) Full 1080p Latino

    1993
    La invención de Cronos (1993) Full 1080p Latino

    0.0 1 h 32 min 1993

    Cronos es un artefacto creado por un alquimista medieval, en cuyo interior se encuentra instalado un...

    Director: Guillermo del Toro

    Género: Drama

    Actores: Tamara Shanath

  • Ash vs. Evil Dead (2017) Temporada 3 WEBDL Latino

    2015
    Ash vs. Evil Dead (2017) Temporada 3 WEBDL Latino

    5.0 0h 43m 2015

    Esta temporada 3 seguirá, por tanto, contando con la participación de Lucy Lawless en el papel de la...

    Director: Sam Raimi

    Género: Acción

    Actores: Ray Santiago

Comentarios 0