Las Crónicas de Narnia El Leon La Bruja y el Ropero (2005) Full 1080p Latino

725 vistas
1 estrella2 estrellas3 estrellas4 estrellas5 estrellas (1 votos, promedio: 5,00 de 5)
Cargando…

Información de Las Crónicas de Narnia El Leon La Bruja y el Ropero (2005) Full 1080p Latino

Datos de la película

  • Calidad: Full 1080p
  • Audio: Español Latino AC3 5.1 BLURAY - Ingles AC3 5.1 BLURAY
  • Subtitulos: Español Latino PGS - Ingles PGS
  • Resolución: 1920x1080p
  • Formato: MKV
  • Codec: H.264
  • Encoder: Dracarys
  • Mediainfo: Clic para Mostrar Datos Ver
  • Format                                   : Matroska
    Format version                           : Version 4 / Version 2
    File size                                : 6.38 GiB
    Duration                                 : 2 h 22 min
    Overall bit rate                         : 6 396 kb/s
    Movie name                               : CinemaniaHDD.com
    Encoded date                             : UTC 2018-04-04 00:27:41 / UTC 2018-04-01T07:58:55Z
    Writing application                      : mkvmerge v15.0.0 ('Duel with the Devil') 64-bit
    Writing library                          : libebml v1.3.5 + libmatroska v1.4.5 / Lavf57.7.2

    Video
    ID                                       : 1
    Format                                   : AVC
    Format/Info                              : Advanced Video Codec
    Format profile                           : High@L4.1
    Format settings                          : CABAC / 4 Ref Frames
    Format settings, CABAC                   : Yes
    Format settings, RefFrames               : 4 frames
    Codec ID                                 : V_MPEG4/ISO/AVC
    Duration                                 : 2 h 22 min
    Bit rate                                 : 4 989 kb/s
    Width                                    : 1 920 pixels
    Height                                   : 1 080 pixels
    Display aspect ratio                     : 16:9
    Frame rate mode                          : Constant
    Frame rate                               : 23.976 (24000/1001) FPS
    Color space                              : YUV
    Chroma subsampling                       : 4:2:0
    Bit depth                                : 8 bits
    Scan type                                : Progressive
    Bits/(Pixel*Frame)                       : 0.100
    Stream size                              : 4.98 GiB (78%)
    Title                                    : Las Crónicas de Narnia El Leon La Bruja y el Ropero (2005) Full 1080p Latino
    Writing library                          : x264 core 148 r2708 86b7198
    Encoding settings                        : cabac=1 / ref=4 / deblock=1:0:0 / analyse=0x3:0x133 / me=esa / subme=9 / psy=1 / psy_rd=1.00:0.00 / mixed_ref=1 / me_range=16 / chroma_me=1 / trellis=2 / 8x8dct=1 / cqm=0 / deadzone=21,11 / fast_pskip=1 / chroma_qp_offset=-2 / threads=34 / lookahead_threads=2 / sliced_threads=0 / nr=0 / decimate=1 / interlaced=0 / bluray_compat=0 / constrained_intra=0 / bframes=3 / b_pyramid=2 / b_adapt=2 / b_bias=0 / direct=3 / weightb=1 / open_gop=0 / weightp=2 / keyint=240 / keyint_min=24 / scenecut=40 / intra_refresh=0 / rc_lookahead=60 / rc=crf / mbtree=1 / crf=20.0 / qcomp=0.60 / qpmin=0 / qpmax=69 / qpstep=4 / vbv_maxrate=62500 / vbv_bufsize=78125 / crf_max=0.0 / nal_hrd=none / filler=0 / ip_ratio=1.40 / aq=1:1.00
    Language                                 : English
    Default                                  : Yes
    Forced                                   : No
    Color range                              : Limited
    Color primaries                          : BT.709
    Transfer characteristics                 : BT.709
    Matrix coefficients                      : BT.709
    Statistics Tags Issue                    : mkvmerge v15.0.0 ('Duel with the Devil') 64-bit 2018-04-04 00:27:41 / mkvmerge v15.0.0 ('Duel with the Devil') 64-bit 2018-04-04 00:27:41 / UTC 2018-04-01T07:58:55Z
    FromStats_BitRate                        : 5103068
    FromStats_Duration                       : 02:22:51.647000000
    FromStats_FrameCount                     : 205514
    FromStats_StreamSize                     : 5467712973

    Audio #1
    ID                                       : 2
    Format                                   : AC-3
    Format/Info                              : Audio Coding 3
    Format settings, Endianness              : Big
    Codec ID                                 : A_AC3
    Duration                                 : 2 h 22 min
    Bit rate mode                            : Constant
    Bit rate                                 : 640 kb/s
    Channel(s)                               : 6 channels
    Channel positions                        : Front: L C R, Side: L R, LFE
    Sampling rate                            : 48.0 kHz
    Frame rate                               : 31.250 FPS (1536 SPF)
    Bit depth                                : 16 bits
    Compression mode                         : Lossy
    Delay relative to video                  : 2 ms
    Stream size                              : 654 MiB (10%)
    Language                                 : Spanish
    Service kind                             : Complete Main
    Default                                  : Yes
    Forced                                   : No
    Statistics Tags Issue                    : mkvmerge v15.0.0 ('Duel with the Devil') 64-bit 2018-04-04 00:27:41 / mkvmerge v15.0.0 ('Duel with the Devil') 64-bit 2018-04-04 00:27:41 / UTC 2018-04-01T07:58:55Z
    FromStats_BitRate                        : 640000
    FromStats_Duration                       : 02:22:51.680000000
    FromStats_FrameCount                     : 267865
    FromStats_StreamSize                     : 685734400

    Audio #2
    ID                                       : 3
    Format                                   : AC-3
    Format/Info                              : Audio Coding 3
    Format settings, Endianness              : Big
    Codec ID                                 : A_AC3
    Duration                                 : 2 h 22 min
    Bit rate mode                            : Constant
    Bit rate                                 : 640 kb/s
    Channel(s)                               : 6 channels
    Channel positions                        : Front: L C R, Side: L R, LFE
    Sampling rate                            : 48.0 kHz
    Frame rate                               : 31.250 FPS (1536 SPF)
    Bit depth                                : 16 bits
    Compression mode                         : Lossy
    Delay relative to video                  : -5 ms
    Stream size                              : 654 MiB (10%)
    Language                                 : English
    Service kind                             : Complete Main
    Default                                  : No
    Forced                                   : No
    Statistics Tags Issue                    : mkvmerge v15.0.0 ('Duel with the Devil') 64-bit 2018-04-04 00:27:41 / mkvmerge v15.0.0 ('Duel with the Devil') 64-bit 2018-04-04 00:27:41 / UTC 2018-04-01T07:58:55Z
    FromStats_BitRate                        : 640000
    FromStats_Duration                       : 02:22:51.648000000
    FromStats_FrameCount                     : 267864
    FromStats_StreamSize                     : 685731840

    Text #1
    ID                                       : 4
    Format                                   : PGS
    Muxing mode                              : zlib
    Codec ID                                 : S_HDMV/PGS
    Codec ID/Info                            : Picture based subtitle format used on BDs/HD-DVDs
    Language                                 : English
    Default                                  : No
    Forced                                   : No
    Statistics Tags Issue                    : mkvmerge v15.0.0 ('Duel with the Devil') 64-bit 2018-04-04 00:27:41 / mkvmerge v15.0.0 ('Duel with the Devil') 64-bit 2018-04-04 00:27:41 / UTC 2018-04-01T07:58:55Z
    FromStats_BitRate                        : 20298
    FromStats_Duration                       : 02:16:55.833000000
    FromStats_FrameCount                     : 2569
    FromStats_StreamSize                     : 20845809

    Text #2
    ID                                       : 5
    Format                                   : PGS
    Muxing mode                              : zlib
    Codec ID                                 : S_HDMV/PGS
    Codec ID/Info                            : Picture based subtitle format used on BDs/HD-DVDs
    Language                                 : Spanish
    Default                                  : No
    Forced                                   : No
    Statistics Tags Issue                    : mkvmerge v15.0.0 ('Duel with the Devil') 64-bit 2018-04-04 00:27:41 / mkvmerge v15.0.0 ('Duel with the Devil') 64-bit 2018-04-04 00:27:41 / UTC 2018-04-01T07:58:55Z
    FromStats_BitRate                        : 17689
    FromStats_Duration                       : 02:11:43.479000000
    FromStats_FrameCount                     : 2129
    FromStats_StreamSize                     : 17476258

    Menu
    00:00:00.042                             : :Chapter 1
    00:07:07.636                             : :Chapter 2
    00:11:15.049                             : :Chapter 3
    00:18:23.144                             : :Chapter 4
    00:24:34.223                             : :Chapter 5
    00:29:45.784                             : :Chapter 6
    00:34:55.760                             : :Chapter 7
    00:39:29.826                             : :Chapter 8
    00:46:50.266                             : :Chapter 9
    00:50:22.561                             : :Chapter 10
    00:56:42.274                             : :Chapter 11
    01:01:14.880                             : :Chapter 12
    01:12:16.290                             : :Chapter 13
    01:18:56.357                             : :Chapter 14
    01:24:35.571                             : :Chapter 15
    01:31:49.379                             : :Chapter 16
    01:37:40.730                             : :Chapter 17
    01:46:12.992                             : :Chapter 18
    01:49:13.172                             : :Chapter 19
    01:52:38.418                             : :Chapter 20
    01:54:59.893                             : :Chapter 21
    01:59:28.536                             : :Chapter 22
    02:05:29.105                             : :Chapter 23
    02:11:33.844                             : :Chapter 24

  • Peso: 6.38 GiB

Sinopsis

La historia narra las aventuras de cuatro hermanos: Lucy, Edmund, Susan y Peter, que durante la Segunda Guerra Mundial descubren el mundo de Narnia, al que acceden a través de un armario mágico mientras juegan al escondite en la casa de campo de un viejo profesor. En Narnia descubrirán un mundo increíble habitado por animales que hablan, duendes, faunos, centauros y gigantes al que la Bruja Blanca- Jadis- ha condenado al invierno eterno. Con la ayuda del león Aslan, el noble soberano, los niños lucharán para vencer el poder que la Bruja Blanca ejerce sobre Narnia en una espectacular batalla y conseguir así liberarle de la maldición del frío.

Ficha técnica

Video trailer de la película

Enlaces de descarga

Rip de Bluray

Descargar Las Crónicas de Narnia El Leon La Bruja y el Ropero (2005) Full 1080p Latino




Aportes de DPeliculasHDmega la pass es:dpeliculashdmega.org Aportes de CinemaniaHD la pass es:cinemaniahdd.com

Películas relacionadas

  • Niños del hombre (2006) Full 1080p Latino

    2006
    Niños del hombre (2006) Full 1080p Latino

    0.0 1 h 49 min 2006

    Año 2027: el ser humano está al borde de la extinción: los hombres han perdido la capacidad de procrear...

    Director: Terry Needham

    Género: Acción

    Actores: Yolanda Vazquez

  • Winchester (2018) 1080p Latino

    2018
    Winchester (2018) 1080p Latino

    0.0 1h 39m 2018

    A finales del siglo XIX, después de la trágica muerte de su marido y su hijo, Sarah construye una casa-fortaleza...

    Director: Peter Spierig

    Género: Fantasía

    Actores: Xavier Gouault

  • Para atrapar al ladrón (1955) Full 1080p Latino

    1955
    Para atrapar al ladrón (1955) Full 1080p Latino

    0.0 1h 46m 1955

    A pesar de que John Robie "El Gato" (Cary Grant) es un ladrón de joyas reformado, se convierte en el...

    Director: Alfred Hitchcock

    Género: Crimen

    Actores: William 'Wee Willie' Davis

  • Si decido quedarme (2014) Full 1080p Latino

    2014
    Si decido quedarme (2014) Full 1080p Latino

    5.0 1 h 46 min 2014

    Mia es una joven de 17 años que parece tenerlo todo en la vida: una famila adorable, un novio que la...

    Director: R.J. Cutler

    Género: Drama

    Actores: William C. Vaughan

Comentarios 4
  • bob - 12 abril, 2018

    los links no se pueden ver!

    • dpelis - 12 abril, 2018

      deje captura para revisar el error

  • BiancaZ - 04 abril, 2018

    Aunque dudo mucho ¿Habrá versión 4K de esta película?

    • Dracarys - 05 abril, 2018

      No hay Bluray 4K aun