Las crónicas de Narnia la travesía del Viajero del Alba (2010) Full 1080p Latino

602 vistas
1 estrella2 estrellas3 estrellas4 estrellas5 estrellas (1 votos, promedio: 5,00 de 5)
Cargando…

Información de Las crónicas de Narnia la travesía del Viajero del Alba (2010) Full 1080p Latino

Datos de la película

  • Calidad: Full 1080p
  • Audio: Español Latino AC3 5.1 BLURAY - Ingles DTS 5.1 BLURAY
  • Subtitulos: Español Latino PGS - Ingles PGS
  • Resolución: 1920x1080p
  • Formato: MKV
  • Codec: H.264
  • Encoder: Dracarys
  • Mediainfo: Clic para Mostrar Datos Ver
  • Format                                   : Matroska
    Format version                           : Version 4 / Version 2
    File size                                : 10.3 GiB
    Duration                                 : 1 h 52 min
    Overall bit rate                         : 13.1 Mb/s
    Movie name                               : CinemaniaHDD.com
    Encoded date                             : UTC 2018-04-04 00:53:39 / UTC 2018-04-01T02:21:51Z
    Writing application                      : mkvmerge v15.0.0 ('Duel with the Devil') 64-bit
    Writing library                          : libebml v1.3.5 + libmatroska v1.4.5 / Lavf57.7.2

    Video
    ID                                       : 1
    Format                                   : AVC
    Format/Info                              : Advanced Video Codec
    Format profile                           : High@L4.1
    Format settings                          : CABAC / 4 Ref Frames
    Format settings, CABAC                   : Yes
    Format settings, RefFrames               : 4 frames
    Codec ID                                 : V_MPEG4/ISO/AVC
    Duration                                 : 1 h 52 min
    Bit rate                                 : 10.8 Mb/s
    Width                                    : 1 920 pixels
    Height                                   : 1 080 pixels
    Display aspect ratio                     : 16:9
    Frame rate mode                          : Constant
    Frame rate                               : 23.976 (24000/1001) FPS
    Color space                              : YUV
    Chroma subsampling                       : 4:2:0
    Bit depth                                : 8 bits
    Scan type                                : Progressive
    Bits/(Pixel*Frame)                       : 0.218
    Stream size                              : 8.53 GiB (83%)
    Title                                    : Las crónicas de Narnia la travesía del Viajero del Alba (2010) Full 1080p Latino
    Writing library                          : x264 core 148 r2708 86b7198
    Encoding settings                        : cabac=1 / ref=4 / deblock=1:0:0 / analyse=0x3:0x133 / me=esa / subme=9 / psy=1 / psy_rd=1.00:0.00 / mixed_ref=1 / me_range=16 / chroma_me=1 / trellis=2 / 8x8dct=1 / cqm=0 / deadzone=21,11 / fast_pskip=1 / chroma_qp_offset=-2 / threads=34 / lookahead_threads=2 / sliced_threads=0 / nr=0 / decimate=1 / interlaced=0 / bluray_compat=0 / constrained_intra=0 / bframes=3 / b_pyramid=2 / b_adapt=2 / b_bias=0 / direct=3 / weightb=1 / open_gop=0 / weightp=2 / keyint=240 / keyint_min=24 / scenecut=40 / intra_refresh=0 / rc_lookahead=60 / rc=crf / mbtree=1 / crf=20.0 / qcomp=0.60 / qpmin=0 / qpmax=69 / qpstep=4 / vbv_maxrate=62500 / vbv_bufsize=78125 / crf_max=0.0 / nal_hrd=none / filler=0 / ip_ratio=1.40 / aq=1:1.00
    Language                                 : English
    Default                                  : Yes
    Forced                                   : No
    Color range                              : Limited
    Color primaries                          : BT.709
    Transfer characteristics                 : BT.709
    Matrix coefficients                      : BT.709
    Statistics Tags Issue                    : mkvmerge v15.0.0 ('Duel with the Devil') 64-bit 2018-04-04 00:53:39 / mkvmerge v15.0.0 ('Duel with the Devil') 64-bit 2018-04-04 00:53:39 / UTC 2018-04-01T02:21:51Z
    FromStats_BitRate                        : 11075513
    FromStats_Duration                       : 01:52:40.754000000
    FromStats_FrameCount                     : 162096
    FromStats_StreamSize                     : 9359852605

    Audio #1
    ID                                       : 2
    Format                                   : AC-3
    Format/Info                              : Audio Coding 3
    Format settings, Endianness              : Big
    Codec ID                                 : A_AC3
    Duration                                 : 1 h 52 min
    Bit rate mode                            : Constant
    Bit rate                                 : 448 kb/s
    Channel(s)                               : 6 channels
    Channel positions                        : Front: L C R, Side: L R, LFE
    Sampling rate                            : 48.0 kHz
    Frame rate                               : 31.250 FPS (1536 SPF)
    Bit depth                                : 16 bits
    Compression mode                         : Lossy
    Stream size                              : 361 MiB (3%)
    Language                                 : Spanish
    Service kind                             : Complete Main
    Default                                  : Yes
    Forced                                   : No
    Statistics Tags Issue                    : mkvmerge v15.0.0 ('Duel with the Devil') 64-bit 2018-04-04 00:53:39 / mkvmerge v15.0.0 ('Duel with the Devil') 64-bit 2018-04-04 00:53:39 / UTC 2018-04-01T02:21:51Z
    FromStats_BitRate                        : 448000
    FromStats_Duration                       : 01:52:40.768000000
    FromStats_FrameCount                     : 211274
    FromStats_StreamSize                     : 378603008

    Audio #2
    ID                                       : 3
    Format                                   : DTS
    Format/Info                              : Digital Theater Systems
    Mode                                     : 16
    Format settings, Endianness              : Big
    Codec ID                                 : A_DTS
    Duration                                 : 1 h 52 min
    Bit rate mode                            : Constant
    Bit rate                                 : 1 509 kb/s
    Channel(s)                               : 6 channels
    Channel positions                        : Front: L C R, Side: L R, LFE
    Sampling rate                            : 48.0 kHz
    Frame rate                               : 93.750 FPS (512 SPF)
    Bit depth                                : 24 bits
    Compression mode                         : Lossy
    Stream size                              : 1.19 GiB (12%)
    Language                                 : English
    Default                                  : No
    Forced                                   : No
    Statistics Tags Issue                    : mkvmerge v15.0.0 ('Duel with the Devil') 64-bit 2018-04-04 00:53:39 / mkvmerge v15.0.0 ('Duel with the Devil') 64-bit 2018-04-04 00:53:39 / UTC 2018-04-01T02:21:51Z
    FromStats_BitRate                        : 1508999
    FromStats_Duration                       : 01:52:40.747000000
    FromStats_FrameCount                     : 633820
    FromStats_StreamSize                     : 1275245840

    Text #1
    ID                                       : 4
    Format                                   : PGS
    Muxing mode                              : zlib
    Codec ID                                 : S_HDMV/PGS
    Codec ID/Info                            : Picture based subtitle format used on BDs/HD-DVDs
    Language                                 : English
    Default                                  : No
    Forced                                   : No
    Statistics Tags Issue                    : mkvmerge v15.0.0 ('Duel with the Devil') 64-bit 2018-04-04 00:53:39 / mkvmerge v15.0.0 ('Duel with the Devil') 64-bit 2018-04-04 00:53:39 / UTC 2018-04-01T02:21:51Z
    FromStats_BitRate                        : 28830
    FromStats_Duration                       : 01:51:35.230000000
    FromStats_FrameCount                     : 2919
    FromStats_StreamSize                     : 24128033

    Text #2
    ID                                       : 5
    Format                                   : PGS
    Muxing mode                              : zlib
    Codec ID                                 : S_HDMV/PGS
    Codec ID/Info                            : Picture based subtitle format used on BDs/HD-DVDs
    Language                                 : Spanish
    Default                                  : No
    Forced                                   : No
    Statistics Tags Issue                    : mkvmerge v15.0.0 ('Duel with the Devil') 64-bit 2018-04-04 00:53:39 / mkvmerge v15.0.0 ('Duel with the Devil') 64-bit 2018-04-04 00:53:39 / UTC 2018-04-01T02:21:51Z
    FromStats_BitRate                        : 23338
    FromStats_Duration                       : 01:51:28.181000000
    FromStats_FrameCount                     : 2572
    FromStats_StreamSize                     : 19511685

    Menu
    00:00:00.000                             : :Chapter 1
    00:04:28.477                             : :Chapter 2
    00:07:37.040                             : :Chapter 3
    00:11:58.259                             : :Chapter 4
    00:15:22.463                             : :Chapter 5
    00:20:06.288                             : :Chapter 6
    00:27:14.508                             : :Chapter 7
    00:32:20.689                             : :Chapter 8
    00:36:45.787                             : :Chapter 9
    00:39:51.598                             : :Chapter 10
    00:41:56.389                             : :Chapter 11
    00:45:21.928                             : :Chapter 12
    00:47:51.494                             : :Chapter 13
    00:52:52.544                             : :Chapter 14
    00:58:04.940                             : :Chapter 15
    01:01:51.333                             : :Chapter 16
    01:05:43.731                             : :Chapter 17
    01:08:20.638                             : :Chapter 18
    01:10:49.912                             : :Chapter 19
    01:16:55.027                             : :Chapter 20
    01:20:23.569                             : :Chapter 21
    01:23:48.315                             : :Chapter 22
    01:28:23.507                             : :Chapter 23
    01:32:30.462                             : :Chapter 24
    01:35:58.753                             : :Chapter 25
    01:38:07.465                             : :Chapter 26
    01:40:55.550                             : :Chapter 27
    01:45:06.842                             : :Chapter 28

  • Peso: 10.3 GiB

Sinopsis

Tercera entrega de la saga literaria creada por C.S. Lewis. En esta ocasión, los hermanos Edmund y Lucy Pevensie y su primo Eustace embarcan en la nave “El Viajero del Alba” para buscar a los siete caballeros que han sido expulsados del reino por Miraz, el usurpador del trono de Narnia.

Ficha técnica

Video trailer de la película

Enlaces de descarga

Rip de Bluray

Descargar Las crónicas de Narnia la travesía del Viajero del Alba (2010) Full 1080p Latino




Aportes de DPeliculasHDmega la pass es:dpeliculashdmega.org Aportes de CinemaniaHD la pass es:cinemaniahdd.com

Películas relacionadas

  • Para atrapar al ladrón (1955) Full 1080p Latino

    1955
    Para atrapar al ladrón (1955) Full 1080p Latino

    0.0 1h 46m 1955

    A pesar de que John Robie "El Gato" (Cary Grant) es un ladrón de joyas reformado, se convierte en el...

    Director: Alfred Hitchcock

    Género: Crimen

    Actores: William 'Wee Willie' Davis

  • Si decido quedarme (2014) Full 1080p Latino

    2014
    Si decido quedarme (2014) Full 1080p Latino

    0.0 1 h 46 min 2014

    Mia es una joven de 17 años que parece tenerlo todo en la vida: una famila adorable, un novio que la...

    Director: R.J. Cutler

    Género: Drama

    Actores: William C. Vaughan

  • A Ghost Story (2017) 1080p Latino

    2017
    A Ghost Story (2017) 1080p Latino

    5.0 1h 27m 2017

    Un hombre recientemente fallecido regresa a su casa como un fantasma vestido con una sábana blanca para...

    Director: David Lowery

    Género: Drama

    Actores: Yasmina Gutierrez

  • Gun shy (2017) 1080p Latino

    2017
    Gun shy (2017) 1080p Latino

    0.0 1h 31m 2017

    Basada en la novela homónima de Mark Haskell Smith. Turk Henry es una antigua estrella de rock con sobrepeso...

    Director: Simon West

    Género: Acción

    Actores: Sebastián Apiolaza

  • Maze Runner prueba de fuego (2015) Full 1080p Latino

    2015
    Maze Runner prueba de fuego (2015) Full 1080p Latino

    5.0 2 h 11 min 2015

    En este nuevo capítulo de la trepidante saga "El Corredor del Laberinto", Thomas (Dylan O'Brien) y el...

    Director: Wes Ball

    Género: Acción

    Actores: Thomas Brodie-Sangster

Comentarios 4
  • iDeztrukxion - 06 abril, 2018

    muchas gracias… las que estaba buscando! disculpen algún día subirán las de hotel transilvania?

    • dpelis - 07 abril, 2018

      si estimado mas adelante

      • aled - 08 abril, 2018

        cual es la contraseña

        • dpelis - 09 abril, 2018

          cinemaniahdd.com