Las horas más oscuras (2017) Full 1080p Latino

1.266 vistas
1 estrella2 estrellas3 estrellas4 estrellas5 estrellas (1 votos, promedio: 5,00 de 5)
Cargando…

Información de Las horas más oscuras (2017) Full 1080p Latino

Datos de la película

  • Calidad: Full 1080p
  • Audio: Se especifica abajo de la Sinopsis
  • Subtitulos: Español Latino PGS - Ingles PGS
  • Resolución: 1920X1080
  • Formato: MKV
  • Codec: H.264
  • Encoder: Dracarys
  • Mediainfo: Clic para Mostrar Datos Ver
  • Format                                   : Matroska
    Format version                           : Version 4 / Version 2
    File size                                : 4.88 GiB
    Duration                                 : 2 h 4 min
    Overall bit rate                         : 5 597 kb/s
    Movie name                               : CinemaniaHDD.com
    Encoded date                             : UTC 2018-02-19 04:11:35 / UTC 2018-02-19T01:50:18Z
    Writing application                      : mkvmerge v15.0.0 ('Duel with the Devil') 64-bit
    Writing library                          : libebml v1.3.5 + libmatroska v1.4.5 / Lavf57.7.2

    Video
    ID                                       : 1
    Format                                   : AVC
    Format/Info                              : Advanced Video Codec
    Format profile                           : High@L4.1
    Format settings                          : CABAC / 4 Ref Frames
    Format settings, CABAC                   : Yes
    Format settings, RefFrames               : 4 frames
    Codec ID                                 : V_MPEG4/ISO/AVC
    Duration                                 : 2 h 4 min
    Bit rate                                 : 4 845 kb/s
    Width                                    : 1 920 pixels
    Height                                   : 1 080 pixels
    Display aspect ratio                     : 16:9
    Frame rate mode                          : Constant
    Frame rate                               : 23.976 (24000/1001) FPS
    Color space                              : YUV
    Chroma subsampling                       : 4:2:0
    Bit depth                                : 8 bits
    Scan type                                : Progressive
    Bits/(Pixel*Frame)                       : 0.097
    Stream size                              : 4.23 GiB (87%)
    Title                                    : Las horas más oscuras (2017) Full 1080p Latino
    Writing library                          : x264 core 148 r2708 86b7198
    Encoding settings                        : cabac=1 / ref=4 / deblock=1:0:0 / analyse=0x3:0x133 / me=esa / subme=9 / psy=1 / psy_rd=1.00:0.00 / mixed_ref=1 / me_range=16 / chroma_me=1 / trellis=2 / 8x8dct=1 / cqm=0 / deadzone=21,11 / fast_pskip=1 / chroma_qp_offset=-2 / threads=34 / lookahead_threads=2 / sliced_threads=0 / nr=0 / decimate=1 / interlaced=0 / bluray_compat=0 / constrained_intra=0 / bframes=3 / b_pyramid=2 / b_adapt=2 / b_bias=0 / direct=3 / weightb=1 / open_gop=0 / weightp=2 / keyint=240 / keyint_min=24 / scenecut=40 / intra_refresh=0 / rc_lookahead=60 / rc=crf / mbtree=1 / crf=20.0 / qcomp=0.60 / qpmin=0 / qpmax=69 / qpstep=4 / vbv_maxrate=62500 / vbv_bufsize=78125 / crf_max=0.0 / nal_hrd=none / filler=0 / ip_ratio=1.40 / aq=1:1.00
    Language                                 : English
    Default                                  : Yes
    Forced                                   : No
    Color range                              : Limited
    Color primaries                          : BT.709
    Transfer characteristics                 : BT.709
    Matrix coefficients                      : BT.709
    Statistics Tags Issue                    : mkvmerge v15.0.0 ('Duel with the Devil') 64-bit 2018-02-19 04:11:35 / mkvmerge v15.0.0 ('Duel with the Devil') 64-bit 2018-02-19 04:11:35 / UTC 2018-02-19T01:50:18Z
    FromStats_BitRate                        : 4163352
    FromStats_Duration                       : 02:04:54.487000000
    FromStats_FrameCount                     : 179688
    FromStats_StreamSize                     : 3900274256

    Audio #1
    ID                                       : 2
    Format                                   : E-AC-3
    Format/Info                              : Enhanced Audio Coding 3
    Format settings, Endianness              : Big
    Codec ID                                 : A_EAC3
    Duration                                 : 2 h 4 min
    Bit rate mode                            : Constant
    Bit rate                                 : 500 b/s
    Channel(s)                               : 6 channels
    Channel positions                        : Front: L C R, Side: L R, LFE
    Sampling rate                            : 48.0 kHz
    Frame rate                               : 187.500 FPS (256 SPF)
    Compression mode                         : Lossy
    Stream size                              : 457 KiB (0%)
    Language                                 : Spanish
    Service kind                             : Complete Main
    Default                                  : Yes
    Forced                                   : No
    Statistics Tags Issue                    : mkvmerge v15.0.0 ('Duel with the Devil') 64-bit 2018-02-19 04:11:35 / mkvmerge v15.0.0 ('Duel with the Devil') 64-bit 2018-02-19 04:11:35 / UTC 2018-02-19T01:50:18Z
    FromStats_BitRate                        : 768000
    FromStats_Duration                       : 02:04:54.496000000
    FromStats_FrameCount                     : 234203
    FromStats_StreamSize                     : 719471616

    Audio #2
    ID                                       : 3
    Format                                   : AC-3
    Format/Info                              : Audio Coding 3
    Format settings, Endianness              : Big
    Codec ID                                 : A_AC3
    Duration                                 : 2 h 4 min
    Bit rate mode                            : Constant
    Bit rate                                 : 640 kb/s
    Channel(s)                               : 6 channels
    Channel positions                        : Front: L C R, Side: L R, LFE
    Sampling rate                            : 48.0 kHz
    Frame rate                               : 31.250 FPS (1536 SPF)
    Bit depth                                : 16 bits
    Compression mode                         : Lossy
    Stream size                              : 572 MiB (11%)
    Language                                 : English
    Service kind                             : Complete Main
    Default                                  : No
    Forced                                   : No
    Statistics Tags Issue                    : mkvmerge v15.0.0 ('Duel with the Devil') 64-bit 2018-02-19 04:11:35 / mkvmerge v15.0.0 ('Duel with the Devil') 64-bit 2018-02-19 04:11:35 / UTC 2018-02-19T01:50:18Z
    FromStats_BitRate                        : 640000
    FromStats_Duration                       : 02:04:54.496000000
    FromStats_FrameCount                     : 234203
    FromStats_StreamSize                     : 599559680

    Text #1
    ID                                       : 4
    Format                                   : PGS
    Muxing mode                              : zlib
    Codec ID                                 : S_HDMV/PGS
    Codec ID/Info                            : Picture based subtitle format used on BDs/HD-DVDs
    Language                                 : English
    Default                                  : No
    Forced                                   : No
    Statistics Tags Issue                    : mkvmerge v15.0.0 ('Duel with the Devil') 64-bit 2018-02-19 04:11:35 / mkvmerge v15.0.0 ('Duel with the Devil') 64-bit 2018-02-19 04:11:35 / UTC 2018-02-19T01:50:18Z
    FromStats_BitRate                        : 39630
    FromStats_Duration                       : 01:57:11.608000000
    FromStats_FrameCount                     : 3628
    FromStats_StreamSize                     : 34832966

    Text #2
    ID                                       : 5
    Format                                   : PGS
    Muxing mode                              : zlib
    Codec ID                                 : S_HDMV/PGS
    Codec ID/Info                            : Picture based subtitle format used on BDs/HD-DVDs
    Language                                 : Spanish
    Default                                  : No
    Forced                                   : No
    Statistics Tags Issue                    : mkvmerge v15.0.0 ('Duel with the Devil') 64-bit 2018-02-19 04:11:35 / mkvmerge v15.0.0 ('Duel with the Devil') 64-bit 2018-02-19 04:11:35 / UTC 2018-02-19T01:50:18Z
    FromStats_BitRate                        : 40405
    FromStats_Duration                       : 02:03:40.371000000
    FromStats_FrameCount                     : 3643
    FromStats_StreamSize                     : 37477716

    Menu
    00:00:00.000                             : :Chapter 1
    00:05:20.028                             : :Chapter 2
    00:10:17.951                             : :Chapter 3
    00:13:59.589                             : :Chapter 4
    00:22:33.060                             : :Chapter 5
    00:29:23.178                             : :Chapter 6
    00:37:09.519                             : :Chapter 7
    00:41:04.587                             : :Chapter 8
    00:48:26.904                             : :Chapter 9
    00:56:16.498                             : :Chapter 10
    01:02:38.463                             : :Chapter 11
    01:10:57.003                             : :Chapter 12
    01:18:41.467                             : :Chapter 13
    01:24:05.791                             : :Chapter 14
    01:30:25.754                             : :Chapter 15
    01:35:58.753                             : :Chapter 16
    01:39:33.968                             : :Chapter 17
    01:45:20.105                             : :Chapter 18
    01:52:55.227                             : :Chapter 19
    01:59:45.053                             : :Chapter 20

  • Peso: 4.88 GiB

Sinopsis

Gran Bretaña, Segunda Guerra Mundial. Pocos días después de convertirse en Primer Ministro, Winston Churchill (Gary Oldman), debe tomar una difícil decisión. En pleno avance de las tropas nazis por toda Europa Occidental, cuando la amenaza de invasión es inminente, Churchill tendrá que elegir entre luchar contra Hitler o aceptar el acuerdo de paz que este le ofrece pactar. A pesar de la presión a la que estuvo sometido, ya que su propio partido llegó a conspirar en su contra y el Rey Jorge VI (Ben Mendelsohn) era muy escéptico al respecto, la firme negativa de Churchill a aceptar la derrota, la rendición o un acuerdo de paz, sirvieron como inspiración a la resistencia británica. Durante los difíciles primeros años de la guerra, cuando el Reino Unido se quedó solo en su firme oposición contra la Alemania nazi, Churchill deberá soportar su hora más oscura, reunir a una nación, luchar por los ideales y la libertad, y tratar de cambiar el curso de la historia mundial.

 

Audios: Latino E-AC3 7.1 Bluray – Ingles-AC3 5.1 Bluray

Ficha técnica

Video trailer de la película

Enlaces de descarga

Rip de Bluray

Descargar Las horas más oscuras (2017) Full 1080p Latino




Aportes de DPeliculasHDmega la pass es:dpeliculashdmega.org Aportes de CinemaniaHD la pass es:cinemaniahdd.com

Películas relacionadas

  • Niños del hombre (2006) Full 1080p Latino

    2006
    Niños del hombre (2006) Full 1080p Latino

    0.0 1 h 49 min 2006

    Año 2027: el ser humano está al borde de la extinción: los hombres han perdido la capacidad de procrear...

    Director: Terry Needham

    Género: Acción

    Actores: Yolanda Vazquez

  • Amateur (2018) NF Webrip 1080p Latino

    2018
    Amateur (2018) NF Webrip 1080p Latino

    0.0 1h 36m 2018

    Un joven jugador de baloncesto se enfrenta a las dificultades de encajar en el nuevo equipo. Adaptación...

    Director: Ryan Koo

    Género: Drama

    Actores: Tekola Cornetet

  • Para atrapar al ladrón (1955) Full 1080p Latino

    1955
    Para atrapar al ladrón (1955) Full 1080p Latino

    0.0 1h 46m 1955

    A pesar de que John Robie "El Gato" (Cary Grant) es un ladrón de joyas reformado, se convierte en el...

    Director: Alfred Hitchcock

    Género: Crimen

    Actores: William 'Wee Willie' Davis

  • Si decido quedarme (2014) Full 1080p Latino

    2014
    Si decido quedarme (2014) Full 1080p Latino

    5.0 1 h 46 min 2014

    Mia es una joven de 17 años que parece tenerlo todo en la vida: una famila adorable, un novio que la...

    Director: R.J. Cutler

    Género: Drama

    Actores: William C. Vaughan

Comentarios 3
  • Maxy - 06 marzo, 2018

    Disculpa no tendrías el link del audio 5.1 ?¿

    • dpelis - 07 marzo, 2018

      aun lo necesita?

  • Akira Takasaki - 20 febrero, 2018

    Muy buena película! La recomiendo! Es un buen complemento para otra película que se llama Dunkerque. Podrían subir una serie de Netflix que se llama “Anne with an E”, es para mi novia. Muchas gracias!!!!