Las horas más oscuras (2017) WEB-DL 1080p Latino

1.548 vistas
1 estrella2 estrellas3 estrellas4 estrellas5 estrellas (1 votos, promedio: 5,00 de 5)
Cargando…

Información de Las horas más oscuras (2017) WEB-DL 1080p Latino

Datos de la película

  • Calidad: WEBDL
  • Audio: Español Latino AC3 2.0 iTunes - Ingles AC3 5.1 iTunes
  • Subtitulos: Español Latino SRT- FORZADOS SRT
  • Resolución: 1916X103p
  • Formato: MKV
  • Codec: H.264
  • Encoder: Dracarys
  • Mediainfo: Clic para Mostrar Datos Ver
  • Format                                   : Matroska
    Format version                           : Version 4 / Version 2
    File size                                : 4.82 GiB
    Duration                                 : 2 h 4 min
    Overall bit rate                         : 5 524 kb/s
    Movie name                               : CinemaniaHDD.com
    Encoded date                             : UTC 2018-02-06 23:38:12
    Writing application                      : mkvmerge v15.0.0 ('Duel with the Devil') 64-bit
    Writing library                          : libebml v1.3.5 + libmatroska v1.4.5

    Video
    ID                                       : 1
    Format                                   : AVC
    Format/Info                              : Advanced Video Codec
    Format profile                           : High@L4
    Format settings                          : CABAC / 4 Ref Frames
    Format settings, CABAC                   : Yes
    Format settings, RefFrames               : 4 frames
    Codec ID                                 : V_MPEG4/ISO/AVC
    Duration                                 : 2 h 4 min
    Bit rate                                 : 4 882 kb/s
    Width                                    : 1 916 pixels
    Height                                   : 1 032 pixels
    Display aspect ratio                     : 1.85:1
    Frame rate mode                          : Constant
    Frame rate                               : 23.976 (24000/1001) FPS
    Color space                              : YUV
    Chroma subsampling                       : 4:2:0
    Bit depth                                : 8 bits
    Scan type                                : Progressive
    Bits/(Pixel*Frame)                       : 0.103
    Stream size                              : 4.26 GiB (88%)
    Title                                    : Las horas más oscuras (2017) WEB-DL 1080p Latino
    Language                                 : English
    Default                                  : Yes
    Forced                                   : No
    Color range                              : Limited
    Color primaries                          : BT.709
    Transfer characteristics                 : BT.709
    Matrix coefficients                      : BT.709

    Audio #1
    ID                                       : 2
    Format                                   : AC-3
    Format/Info                              : Audio Coding 3
    Format settings, Endianness              : Big
    Codec ID                                 : A_AC3
    Duration                                 : 2 h 4 min
    Bit rate mode                            : Constant
    Bit rate                                 : 256 kb/s
    Channel(s)                               : 2 channels
    Channel positions                        : Front: L R
    Sampling rate                            : 48.0 kHz
    Frame rate                               : 31.250 FPS (1536 SPF)
    Bit depth                                : 16 bits
    Compression mode                         : Lossy
    Stream size                              : 229 MiB (5%)
    Language                                 : Spanish
    Service kind                             : Complete Main
    Default                                  : Yes
    Forced                                   : No

    Audio #2
    ID                                       : 3
    Format                                   : AC-3
    Format/Info                              : Audio Coding 3
    Format settings, Endianness              : Big
    Codec ID                                 : A_AC3
    Duration                                 : 2 h 4 min
    Bit rate mode                            : Constant
    Bit rate                                 : 384 kb/s
    Channel(s)                               : 6 channels
    Channel positions                        : Front: L C R, Side: L R, LFE
    Sampling rate                            : 48.0 kHz
    Frame rate                               : 31.250 FPS (1536 SPF)
    Bit depth                                : 16 bits
    Compression mode                         : Lossy
    Stream size                              : 343 MiB (7%)
    Language                                 : English
    Service kind                             : Complete Main
    Default                                  : No
    Forced                                   : No

    Text #1
    ID                                       : 4
    Format                                   : UTF-8
    Codec ID                                 : S_TEXT/UTF8
    Codec ID/Info                            : UTF-8 Plain Text
    Duration                                 : 1 h 58 min
    Bit rate                                 : 1 b/s
    Count of elements                        : 42
    Stream size                              : 1.16 KiB (0%)
    Title                                    : Forzados
    Language                                 : Spanish
    Default                                  : Yes
    Forced                                   : Yes

    Text #2
    ID                                       : 5
    Format                                   : UTF-8
    Codec ID                                 : S_TEXT/UTF8
    Codec ID/Info                            : UTF-8 Plain Text
    Duration                                 : 1 h 58 min
    Bit rate                                 : 66 b/s
    Count of elements                        : 1814
    Stream size                              : 57.7 KiB (0%)
    Title                                    : Completos
    Language                                 : Spanish
    Default                                  : No
    Forced                                   : No

    Menu
    00:00:00.000                             : en:1
    00:05:21.029                             : en:2
    00:10:18.951                             : en:3
    00:14:00.589                             : en:4
    00:22:34.060                             : en:5
    00:29:24.178                             : en:6
    00:37:10.519                             : en:7
    00:41:05.587                             : en:8
    00:48:27.904                             : en:9
    00:56:17.498                             : en:10
    01:02:39.463                             : en:11
    01:10:58.003                             : en:12
    01:18:42.467                             : en:13
    01:24:06.791                             : en:14
    01:30:26.629                             : en:15
    01:35:59.753                             : en:16
    01:39:34.968                             : en:17
    01:45:21.105                             : en:18
    01:52:56.226                             : en:19
    01:59:46.010                             : en:20

  • Peso: 4.82 GiB

Sinopsis

Gran Bretaña, Segunda Guerra Mundial. Pocos días después de convertirse en Primer Ministro, Winston Churchill (Gary Oldman), debe tomar una difícil decisión. En pleno avance de las tropas nazis por toda Europa Occidental, cuando la amenaza de invasión es inminente, Churchill tendrá que elegir entre luchar contra Hitler o aceptar el acuerdo de paz que este le ofrece pactar. A pesar de la presión a la que estuvo sometido, ya que su propio partido llegó a conspirar en su contra y el Rey Jorge VI (Ben Mendelsohn) era muy escéptico al respecto, la firme negativa de Churchill a aceptar la derrota, la rendición o un acuerdo de paz, sirvieron como inspiración a la resistencia británica. Durante los difíciles primeros años de la guerra, cuando el Reino Unido se quedó solo en su firme oposición contra la Alemania nazi, Churchill deberá soportar su hora más oscura, reunir a una nación, luchar por los ideales y la libertad, y tratar de cambiar el curso de la historia mundial.

Ficha técnica

Video trailer de la película

Enlaces de descarga

Rip de Bluray

Descargar Las horas más oscuras (2017) WEB-DL 1080p Latino




Aportes de DPeliculasHDmega la pass es:dpeliculashdmega.org Aportes de CinemaniaHD la pass es:cinemaniahdd.com
Guardado en : Drama , Historia

Películas relacionadas

  • A Ghost Story (2017) 1080p Latino

    2017
    A Ghost Story (2017) 1080p Latino

    5.0 1h 27m 2017

    Un hombre recientemente fallecido regresa a su casa como un fantasma vestido con una sábana blanca para...

    Director: David Lowery

    Género: Drama

    Actores: Yasmina Gutierrez

  • Milagros inesperados (1999) Full 1080p Latino

    1999
    Milagros inesperados (1999) Full 1080p Latino

    5.0 3h 9m 1999

    En el sur de los Estados Unidos, en plena Depresión, Paul Edgecomb es un vigilante penitenciario a cargo...

    Director: Susan Malerstein

    Género: Crimen

    Actores: William Sadler

  • La terminal (2004) Full 1080p Latino

    2004
    La terminal (2004) Full 1080p Latino

    5.0 2 h 8 min 2004

    Basado en hechos reales, Viktor Navorski (Tom Hanks) es un inmigrante balcánico que, al estallar la...

    Director: Steven Spielberg

    Género: Comedia

    Actores: Zoe Saldana

  • La invención de Cronos (1993) Full 1080p Latino

    1993
    La invención de Cronos (1993) Full 1080p Latino

    0.0 1 h 32 min 1993

    Cronos es un artefacto creado por un alquimista medieval, en cuyo interior se encuentra instalado un...

    Director: Guillermo del Toro

    Género: Drama

    Actores: Tamara Shanath

Comentarios 3
  • slash - 09 febrero, 2018

    Muy buena película, muchas gracias.

  • Brian - 07 febrero, 2018

    HOla cual es la diferencia con la pelicula churcill?

    • Dracarys - 14 febrero, 2018

      misma historia contada de diferente forma