Liga de la Justicia (2017) WEB-DL 1080p Latino

5.807 vistas
1 estrella2 estrellas3 estrellas4 estrellas5 estrellas (4 votos, promedio: 5,00 de 5)
Cargando…

Información de Liga de la Justicia (2017) WEB-DL 1080p Latino

Datos de la película

  • Calidad: WEBDL
  • Audio: Español Latino AC3 5.1 iTunes - Ingles AC3 5.1 iTunes
  • Subtitulos: Español Latino SRT- FORZADOS SRT
  • Resolución: 1920X1080p
  • Formato: MKV
  • Codec: H.264
  • Encoder: Dracarys
  • Mediainfo: Clic para Mostrar Datos Ver
  • Format                                   : Matroska
    Format version                           : Version 4 / Version 2
    File size                                : 4.95 GiB
    Duration                                 : 2 h 0 min
    Overall bit rate                         : 5 908 kb/s
    Movie name                               : CinemaniaHDD.com
    Encoded date                             : UTC 2018-02-13 02:39:34
    Writing application                      : mkvmerge v15.0.0 ('Duel with the Devil') 64-bit
    Writing library                          : libebml v1.3.5 + libmatroska v1.4.5

    Video
    ID                                       : 1
    Format                                   : AVC
    Format/Info                              : Advanced Video Codec
    Format profile                           : High@L4
    Format settings                          : CABAC / 4 Ref Frames
    Format settings, CABAC                   : Yes
    Format settings, RefFrames               : 4 frames
    Codec ID                                 : V_MPEG4/ISO/AVC
    Duration                                 : 2 h 0 min
    Bit rate                                 : 5 137 kb/s
    Width                                    : 1 920 pixels
    Height                                   : 1 080 pixels
    Display aspect ratio                     : 16:9
    Frame rate mode                          : Constant
    Frame rate                               : 23.976 (24000/1001) FPS
    Color space                              : YUV
    Chroma subsampling                       : 4:2:0
    Bit depth                                : 8 bits
    Scan type                                : Progressive
    Bits/(Pixel*Frame)                       : 0.103
    Stream size                              : 4.31 GiB (87%)
    Title                                    : Liga de la Justicia (2017) WEB-DL 1080p Latino
    Language                                 : English
    Default                                  : Yes
    Forced                                   : No
    Color range                              : Limited
    Color primaries                          : BT.709
    Transfer characteristics                 : BT.709
    Matrix coefficients                      : BT.709

    Audio #1
    ID                                       : 2
    Format                                   : AC-3
    Format/Info                              : Audio Coding 3
    Format settings, Endianness              : Big
    Codec ID                                 : A_AC3
    Duration                                 : 2 h 0 min
    Bit rate mode                            : Constant
    Bit rate                                 : 384 kb/s
    Channel(s)                               : 6 channels
    Channel positions                        : Front: L C R, Side: L R, LFE
    Sampling rate                            : 48.0 kHz
    Frame rate                               : 31.250 FPS (1536 SPF)
    Bit depth                                : 16 bits
    Compression mode                         : Lossy
    Stream size                              : 330 MiB (7%)
    Language                                 : Spanish
    Service kind                             : Complete Main
    Default                                  : Yes
    Forced                                   : No

    Audio #2
    ID                                       : 3
    Format                                   : AC-3
    Format/Info                              : Audio Coding 3
    Format settings, Endianness              : Big
    Codec ID                                 : A_AC3
    Duration                                 : 2 h 0 min
    Bit rate mode                            : Constant
    Bit rate                                 : 384 kb/s
    Channel(s)                               : 6 channels
    Channel positions                        : Front: L C R, Side: L R, LFE
    Sampling rate                            : 48.0 kHz
    Frame rate                               : 31.250 FPS (1536 SPF)
    Bit depth                                : 16 bits
    Compression mode                         : Lossy
    Stream size                              : 330 MiB (7%)
    Language                                 : English
    Service kind                             : Complete Main
    Default                                  : No
    Forced                                   : No

    Text #1
    ID                                       : 4
    Format                                   : UTF-8
    Codec ID                                 : S_TEXT/UTF8
    Codec ID/Info                            : UTF-8 Plain Text
    Duration                                 : 1 h 21 min
    Bit rate                                 : 0 b/s
    Count of elements                        : 13
    Stream size                              : 340 Bytes (0%)
    Title                                    : Forzados
    Language                                 : Spanish
    Default                                  : Yes
    Forced                                   : Yes

    Text #2
    ID                                       : 5
    Format                                   : UTF-8
    Codec ID                                 : S_TEXT/UTF8
    Codec ID/Info                            : UTF-8 Plain Text
    Duration                                 : 1 h 59 min
    Bit rate                                 : 43 b/s
    Count of elements                        : 1249
    Stream size                              : 37.5 KiB (0%)
    Language                                 : Spanish
    Default                                  : No
    Forced                                   : No

    Menu
    00:00:00.000                             : en:1
    00:10:56.000                             : en:2
    00:19:16.000                             : en:3
    00:30:41.000                             : en:4
    00:40:19.000                             : en:5
    00:49:56.000                             : en:6
    01:01:26.000                             : en:7
    01:09:41.000                             : en:8
    01:19:18.000                             : en:9
    01:30:34.000                             : en:10
    01:40:33.000                             : en:11
    01:48:42.000                             : en:12

  • Peso: 4.95 GiB

Sinopsis

Alimentado por su restaurada fe en la humanidad e inspirado por el acto desinteresado de Superman, Bruce Wayne recluta la ayuda de su recién encontrada aliada, Diana Prince, para enfrentarse a un enemigo aún mayor. Juntos, Batman y Wonder Woman trabajan deprisa para encontrar y reclutar un equipo de metahumanos para plantar cara a esta nueva amenaza creciente. Pero pese a la formación de esta liga de héroes sin precedentes – Batman, Wonder Woman, Aquaman, Cyborg y Flash, quizás sea demasiado tarde para salvar el planeta de un asalto de proporciones catastróficas.

Ficha técnica

Video trailer de la película

Enlaces de descarga

Rip de Bluray

Descargar Liga de la Justicia (2017) WEB-DL 1080p Latino




Aportes de DPeliculasHDmega la pass es:dpeliculashdmega.org Aportes de CinemaniaHD la pass es:cinemaniahdd.com

Películas relacionadas

  • The Titan (2018) NF 1080p Latino

    2018
    The Titan (2018) NF 1080p Latino

    0.0 1h 37m 2018

    En un futuro cercano, una familia de militares decide tomar parte en un revolucionario experimento de...

    Director: Neil Wallace

    Género: Ciencia ficción

    Actores: Tom Wilkinson

  • Tremors a cold day in hell (2018)1080p Latino

    2018
    Tremors a cold day in hell (2018)1080p Latino

    0.0 0h 0m 2018

    La secuela nos muestra a Burt Gummer y a su hijo Travis en una estación de investiagción remota, donde...

    Director: Don Michael Paul

    Género: Acción

    Actores: Tanya van Graan

  • Psychokinesis (2018) NF Web-dl 1080p Latino

    2018
    Psychokinesis (2018) NF Web-dl 1080p Latino

    0.0 1h 41m 2018

    Comedia coreana en la que un padre que se propone a salvar a su hija con unos superpoderes que acaba...

    Director: Yeon Sang-Ho

    Género: Acción

    Actores: Yoo Seung-mok

  • Westworld T02E01 – Journey into night 1080p Latino

    2016
    Westworld T02E01 – Journey into night 1080p Latino

    0.0 1h 0m 2016

    Westworld, es un revolucionario parque de diversiones futurista, que emula un ambiente similar al Lejano...

    Director: Lisa Joy

    Género: Ciencia ficción

    Actores: Thandie Newton

Comentarios 26
  • sebass - 23 febrero, 2018

    esta versión es similar a una caratula plateada en calidad?

    • dpelis - 01 abril, 2018

      es una version de itunes. Nada parecido a la plateadasaludos

  • Faramir - 18 febrero, 2018

    Saludos, la he descargado desde drive despues de muchos intentos me ha limitado muchas veces la velocidad y las descargas. Al descomprimir me da error de parte 4 incompleta.
    Los link de Mega no funcionan.

    • Dracarys - 22 febrero, 2018

      para descargar de mega usar gestor de descarga

  • Lalopiano - 17 febrero, 2018

    Que tal .. algun dia subiras la de Superman el hombre de acero ? Latino full hd
    Estaria genial.. muchas de las peliculas solo las encuentro en tu pagina
    Saludos Gracias por tu pagina

    • Dracarys - 17 febrero, 2018

      Pronto amigo.

  • Cristo16 - 16 febrero, 2018

    Una pregunta , cuándo subirán Thor Ragnarok En Latino.?

    • Dracarys - 17 febrero, 2018

      20 de febrero.

  • Laura - 16 febrero, 2018

    Como va el sonido ya es final???

    • Dracarys - 17 febrero, 2018

      Solo falta el audio Bluray.

  • M.Torres - 16 febrero, 2018

    LOS ENLACES DE MEGA SE CALLERON Y LO GOOGLE TAMBIEN

    • Dracarys - 16 febrero, 2018

      Para descargar desde mega tienes que usar un gestor de descarga…

  • cristo12 - 14 febrero, 2018

    cuando subiran la navidad de las madres rebeldes en latino?

  • Slash - 14 febrero, 2018

    Muchas gracias.

  • Lamper - 14 febrero, 2018

    Es la versión final o viene una full?

    • Dracarys - 14 febrero, 2018

      Esta es la primera version falta dos mas aun.

      • cristo12 - 14 febrero, 2018

        cuales son las dos versiones que faltan? perdon por la pregunta , esque no sabia que habian dos mas.

        • Dracarys - 14 febrero, 2018

          perdon era una max una version extendida…

          • Cristo16 - 18 febrero, 2018

            Y cuándo subirán esa versión?

  • Carlos - 13 febrero, 2018

    Los enlaces de mega no salen

    • Dracarys - 14 febrero, 2018

      Subidos

  • Jairo - 13 febrero, 2018

    Subirán la versión extendida? La que saldrá en el Blu-ray?

    • Dracarys - 14 febrero, 2018

      En algunas semana se subiran…

  • Bocelli - 13 febrero, 2018

    No puedo descargar

    • Dracarys - 14 febrero, 2018

      que error tienes

  • george - 13 febrero, 2018

    gracias por todos los excelentes aportes, gracias mil.