Los descendientes (2011) Full 1080p Latino

524 vistas
1 estrella2 estrellas3 estrellas4 estrellas5 estrellas (Ninguna valoración todavía)
Cargando…

Información de Los descendientes (2011) Full 1080p Latino

Datos de la película

  • Calidad: Full 1080p
  • Audio: Español Latino AC3 5.1 BLURAY - Ingles DTS 5.1 BLURAY
  • Subtitulos: Español Latino PGS - Ingles PGS
  • Resolución: 1920x1080p
  • Formato: MKV
  • Codec: H.264
  • Encoder: DRacarys
  • Mediainfo: Clic para Mostrar Datos Ver
  • Format                                   : Matroska
    Format version                           : Version 4 / Version 2
    File size                                : 8.26 GiB
    Duration                                 : 1 h 55 min
    Overall bit rate                         : 10.3 Mb/s
    Movie name                               : CinemaniaHDD.com
    Encoded date                             : UTC 2018-03-29 06:19:48 / UTC 2018-03-28T15:21:07Z
    Writing application                      : mkvmerge v15.0.0 ('Duel with the Devil') 64-bit
    Writing library                          : libebml v1.3.5 + libmatroska v1.4.5 / Lavf57.7.2

    Video
    ID                                       : 1
    Format                                   : AVC
    Format/Info                              : Advanced Video Codec
    Format profile                           : High@L4.1
    Format settings                          : CABAC / 4 Ref Frames
    Format settings, CABAC                   : Yes
    Format settings, RefFrames               : 4 frames
    Codec ID                                 : V_MPEG4/ISO/AVC
    Duration                                 : 1 h 55 min
    Bit rate                                 : 8 121 kb/s
    Width                                    : 1 920 pixels
    Height                                   : 1 080 pixels
    Display aspect ratio                     : 16:9
    Frame rate mode                          : Constant
    Frame rate                               : 23.976 (24000/1001) FPS
    Color space                              : YUV
    Chroma subsampling                       : 4:2:0
    Bit depth                                : 8 bits
    Scan type                                : Progressive
    Bits/(Pixel*Frame)                       : 0.163
    Stream size                              : 6.52 GiB (79%)
    Title                                    : Los descendientes (2011) Full 1080p Latino
    Writing library                          : x264 core 148 r2708 86b7198
    Encoding settings                        : cabac=1 / ref=4 / deblock=1:0:0 / analyse=0x3:0x133 / me=esa / subme=9 / psy=1 / psy_rd=1.00:0.00 / mixed_ref=1 / me_range=16 / chroma_me=1 / trellis=2 / 8x8dct=1 / cqm=0 / deadzone=21,11 / fast_pskip=1 / chroma_qp_offset=-2 / threads=34 / lookahead_threads=2 / sliced_threads=0 / nr=0 / decimate=1 / interlaced=0 / bluray_compat=0 / constrained_intra=0 / bframes=3 / b_pyramid=2 / b_adapt=2 / b_bias=0 / direct=3 / weightb=1 / open_gop=0 / weightp=2 / keyint=240 / keyint_min=24 / scenecut=40 / intra_refresh=0 / rc_lookahead=60 / rc=crf / mbtree=1 / crf=20.0 / qcomp=0.60 / qpmin=0 / qpmax=69 / qpstep=4 / vbv_maxrate=62500 / vbv_bufsize=78125 / crf_max=0.0 / nal_hrd=none / filler=0 / ip_ratio=1.40 / aq=1:1.00
    Language                                 : English
    Default                                  : Yes
    Forced                                   : No
    Color range                              : Limited
    Color primaries                          : BT.709
    Transfer characteristics                 : BT.709
    Matrix coefficients                      : BT.709
    Statistics Tags Issue                    : mkvmerge v15.0.0 ('Duel with the Devil') 64-bit 2018-03-29 06:19:48 / mkvmerge v15.0.0 ('Duel with the Devil') 64-bit 2018-03-29 06:19:48 / UTC 2018-03-28T15:21:07Z
    FromStats_BitRate                        : 8291279
    FromStats_Duration                       : 01:55:00.894000000
    FromStats_FrameCount                     : 165456
    FromStats_StreamSize                     : 7152154865

    Audio #1
    ID                                       : 2
    Format                                   : AC-3
    Format/Info                              : Audio Coding 3
    Format settings, Endianness              : Big
    Codec ID                                 : A_AC3
    Duration                                 : 1 h 55 min
    Bit rate mode                            : Constant
    Bit rate                                 : 448 kb/s
    Channel(s)                               : 6 channels
    Channel positions                        : Front: L C R, Side: L R, LFE
    Sampling rate                            : 48.0 kHz
    Frame rate                               : 31.250 FPS (1536 SPF)
    Bit depth                                : 16 bits
    Compression mode                         : Lossy
    Delay relative to video                  : 14 ms
    Stream size                              : 369 MiB (4%)
    Language                                 : Spanish
    Service kind                             : Complete Main
    Default                                  : Yes
    Forced                                   : No
    Statistics Tags Issue                    : mkvmerge v15.0.0 ('Duel with the Devil') 64-bit 2018-03-29 06:19:48 / mkvmerge v15.0.0 ('Duel with the Devil') 64-bit 2018-03-29 06:19:48 / UTC 2018-03-28T15:21:07Z
    FromStats_BitRate                        : 448000
    FromStats_Duration                       : 01:55:00.896000000
    FromStats_FrameCount                     : 215653
    FromStats_StreamSize                     : 386450176

    Audio #2
    ID                                       : 3
    Format                                   : DTS
    Format/Info                              : Digital Theater Systems
    Mode                                     : 16
    Format settings, Endianness              : Big
    Codec ID                                 : A_DTS
    Duration                                 : 1 h 55 min
    Bit rate mode                            : Constant
    Bit rate                                 : 1 509 kb/s
    Channel(s)                               : 6 channels
    Channel positions                        : Front: L C R, Side: L R, LFE
    Sampling rate                            : 48.0 kHz
    Frame rate                               : 93.750 FPS (512 SPF)
    Bit depth                                : 24 bits
    Compression mode                         : Lossy
    Delay relative to video                  : 3 ms
    Stream size                              : 1.21 GiB (15%)
    Language                                 : English
    Default                                  : No
    Forced                                   : No
    Statistics Tags Issue                    : mkvmerge v15.0.0 ('Duel with the Devil') 64-bit 2018-03-29 06:19:48 / mkvmerge v15.0.0 ('Duel with the Devil') 64-bit 2018-03-29 06:19:48 / UTC 2018-03-28T15:21:07Z
    FromStats_BitRate                        : 1508999
    FromStats_Duration                       : 01:55:00.886000000
    FromStats_FrameCount                     : 646958
    FromStats_StreamSize                     : 1301679496

    Text #1
    ID                                       : 4
    Format                                   : PGS
    Muxing mode                              : zlib
    Codec ID                                 : S_HDMV/PGS
    Codec ID/Info                            : Picture based subtitle format used on BDs/HD-DVDs
    Language                                 : English
    Default                                  : No
    Forced                                   : No
    Statistics Tags Issue                    : mkvmerge v15.0.0 ('Duel with the Devil') 64-bit 2018-03-29 06:19:48 / mkvmerge v15.0.0 ('Duel with the Devil') 64-bit 2018-03-29 06:19:48 / UTC 2018-03-28T15:21:07Z
    FromStats_BitRate                        : 36385
    FromStats_Duration                       : 01:54:24.775000000
    FromStats_FrameCount                     : 2875
    FromStats_StreamSize                     : 31221906

    Text #2
    ID                                       : 5
    Format                                   : PGS
    Muxing mode                              : zlib
    Codec ID                                 : S_HDMV/PGS
    Codec ID/Info                            : Picture based subtitle format used on BDs/HD-DVDs
    Language                                 : Spanish
    Default                                  : No
    Forced                                   : No
    Statistics Tags Issue                    : mkvmerge v15.0.0 ('Duel with the Devil') 64-bit 2018-03-29 06:19:48 / mkvmerge v15.0.0 ('Duel with the Devil') 64-bit 2018-03-29 06:19:48 / UTC 2018-03-28T15:21:07Z
    FromStats_BitRate                        : 34088
    FromStats_Duration                       : 01:53:46.486000000
    FromStats_FrameCount                     : 2666
    FromStats_StreamSize                     : 29088078

    Menu
    00:00:00.000                             : :Chapter 1
    00:03:18.990                             : :Chapter 2
    00:06:58.668                             : :Chapter 3
    00:09:09.174                             : :Chapter 4
    00:10:27.877                             : :Chapter 5
    00:14:22.862                             : :Chapter 6
    00:18:03.374                             : :Chapter 7
    00:22:42.444                             : :Chapter 8
    00:26:00.517                             : :Chapter 9
    00:29:37.859                             : :Chapter 10
    00:34:20.976                             : :Chapter 11
    00:36:06.206                             : :Chapter 12
    00:40:00.148                             : :Chapter 13
    00:44:42.680                             : :Chapter 14
    00:47:07.742                             : :Chapter 15
    00:49:18.414                             : :Chapter 16
    00:51:45.769                             : :Chapter 17
    00:53:39.133                             : :Chapter 18
    01:00:01.098                             : :Chapter 19
    01:07:46.646                             : :Chapter 20
    01:12:47.196                             : :Chapter 21
    01:18:39.632                             : :Chapter 22
    01:22:29.695                             : :Chapter 23
    01:25:40.302                             : :Chapter 24
    01:26:38.610                             : :Chapter 25
    01:28:32.682                             : :Chapter 26
    01:31:41.246                             : :Chapter 27
    01:34:30.373                             : :Chapter 28
    01:38:16.724                             : :Chapter 29
    01:43:14.939                             : :Chapter 30
    01:45:42.628                             : :Chapter 31
    01:48:03.644                             : :Chapter 32

  • Peso: 8.26 GiB

Sinopsis

Matt King (George Clooney), casado y padre de dos niñas, se ve obligado a replantearse la vida cuando su mujer sufre un terrible accidente que la deja en coma. Intenta torpemente recomponer la relación con sus problemáticas hijas -la precoz Scottie, de 10 años (Amara Miller), y la rebelde Alexandra, de 17 (Shailene Woodley)- al tiempo que se enfrenta a la difícil decisión de vender las propiedades de la familia. Herederos de la realeza hawaiana y de los misioneros, los King poseen en Hawai tierras vírgenes de un valor incalculable.

Ficha técnica

Video trailer de la película

Enlaces de descarga

Rip de Bluray

Descargar Los descendientes (2011) Full 1080p Latino




Aportes de DPeliculasHDmega la pass es:dpeliculashdmega.org Aportes de CinemaniaHD la pass es:cinemaniahdd.com

Películas relacionadas

  • Niños del hombre (2006) Full 1080p Latino

    2006
    Niños del hombre (2006) Full 1080p Latino

    0.0 1 h 49 min 2006

    Año 2027: el ser humano está al borde de la extinción: los hombres han perdido la capacidad de procrear...

    Director: Terry Needham

    Género: Acción

    Actores: Yolanda Vazquez

  • Amateur (2018) NF Webrip 1080p Latino

    2018
    Amateur (2018) NF Webrip 1080p Latino

    0.0 1h 36m 2018

    Un joven jugador de baloncesto se enfrenta a las dificultades de encajar en el nuevo equipo. Adaptación...

    Director: Ryan Koo

    Género: Drama

    Actores: Tekola Cornetet

  • Para atrapar al ladrón (1955) Full 1080p Latino

    1955
    Para atrapar al ladrón (1955) Full 1080p Latino

    0.0 1h 46m 1955

    A pesar de que John Robie "El Gato" (Cary Grant) es un ladrón de joyas reformado, se convierte en el...

    Director: Alfred Hitchcock

    Género: Crimen

    Actores: William 'Wee Willie' Davis

  • Si decido quedarme (2014) Full 1080p Latino

    2014
    Si decido quedarme (2014) Full 1080p Latino

    5.0 1 h 46 min 2014

    Mia es una joven de 17 años que parece tenerlo todo en la vida: una famila adorable, un novio que la...

    Director: R.J. Cutler

    Género: Drama

    Actores: William C. Vaughan

Comentarios 0