Los puentes de Madison (1995) Full 1080p Latino

842 vistas
1 estrella2 estrellas3 estrellas4 estrellas5 estrellas (1 votos, promedio: 5,00 de 5)
Cargando…

Información de Los puentes de Madison (1995) Full 1080p Latino

Datos de la película

  • Calidad: Full 1080p
  • Audio: Español Latino AC3 2.0 BLURAY - Ingles DTS 5.1 BLURAY
  • Subtitulos: Español Latino PGS
  • Resolución: 1920X1080p
  • Formato: MKV
  • Codec: H.264
  • Encoder: Dracarys
  • Mediainfo: Clic para Mostrar Datos Ver
  • Format                                   : Matroska
    Format version                           : Version 4 / Version 2
    File size                                : 10.3 GiB
    Duration                                 : 2 h 14 min
    Overall bit rate                         : 10.9 Mb/s
    Movie name                               : CinemaniaHDD.com
    Encoded date                             : UTC 2018-02-27 20:28:12 / UTC 2018-02-24T09:29:19Z
    Writing application                      : mkvmerge v15.0.0 ('Duel with the Devil') 64-bit
    Writing library                          : libebml v1.3.5 + libmatroska v1.4.5 / Lavf57.7.2

    Video
    ID                                       : 1
    Format                                   : AVC
    Format/Info                              : Advanced Video Codec
    Format profile                           : High@L4.1
    Format settings                          : CABAC / 4 Ref Frames
    Format settings, CABAC                   : Yes
    Format settings, RefFrames               : 4 frames
    Codec ID                                 : V_MPEG4/ISO/AVC
    Duration                                 : 2 h 14 min
    Bit rate                                 : 9 012 kb/s
    Width                                    : 1 920 pixels
    Height                                   : 1 080 pixels
    Display aspect ratio                     : 16:9
    Frame rate mode                          : Constant
    Frame rate                               : 23.976 (24000/1001) FPS
    Color space                              : YUV
    Chroma subsampling                       : 4:2:0
    Bit depth                                : 8 bits
    Scan type                                : Progressive
    Bits/(Pixel*Frame)                       : 0.181
    Stream size                              : 8.47 GiB (82%)
    Title                                    : Los puentes de Madison (1995) Full 1080p Latino
    Writing library                          : x264 core 148 r2708 86b7198
    Encoding settings                        : cabac=1 / ref=4 / deblock=1:0:0 / analyse=0x3:0x133 / me=esa / subme=9 / psy=1 / psy_rd=1.00:0.00 / mixed_ref=1 / me_range=16 / chroma_me=1 / trellis=2 / 8x8dct=1 / cqm=0 / deadzone=21,11 / fast_pskip=1 / chroma_qp_offset=-2 / threads=34 / lookahead_threads=2 / sliced_threads=0 / nr=0 / decimate=1 / interlaced=0 / bluray_compat=0 / constrained_intra=0 / bframes=3 / b_pyramid=2 / b_adapt=2 / b_bias=0 / direct=3 / weightb=1 / open_gop=0 / weightp=2 / keyint=240 / keyint_min=24 / scenecut=40 / intra_refresh=0 / rc_lookahead=60 / rc=crf / mbtree=1 / crf=20.0 / qcomp=0.60 / qpmin=0 / qpmax=69 / qpstep=4 / vbv_maxrate=62500 / vbv_bufsize=78125 / crf_max=0.0 / nal_hrd=none / filler=0 / ip_ratio=1.40 / aq=1:1.00
    Language                                 : English
    Default                                  : Yes
    Forced                                   : No
    Color range                              : Limited
    Color primaries                          : BT.709
    Transfer characteristics                 : BT.709
    Matrix coefficients                      : BT.709
    Statistics Tags Issue                    : mkvmerge v15.0.0 ('Duel with the Devil') 64-bit 2018-02-27 20:28:12 / mkvmerge v15.0.0 ('Duel with the Devil') 64-bit 2018-02-27 20:28:12 / UTC 2018-02-24T09:29:19Z
    FromStats_BitRate                        : 9211946
    FromStats_Duration                       : 02:14:35.526000000
    FromStats_FrameCount                     : 193619
    FromStats_StreamSize                     : 9298914001

    Audio #1
    ID                                       : 2
    Format                                   : AC-3
    Format/Info                              : Audio Coding 3
    Mode                                     : Dolby Digital
    Format settings, Endianness              : Big
    Codec ID                                 : A_AC3
    Duration                                 : 2 h 14 min
    Bit rate mode                            : Constant
    Bit rate                                 : 192 kb/s
    Channel(s)                               : 2 channels
    Channel positions                        : Front: L R
    Sampling rate                            : 48.0 kHz
    Frame rate                               : 31.250 FPS (1536 SPF)
    Bit depth                                : 16 bits
    Compression mode                         : Lossy
    Stream size                              : 185 MiB (2%)
    Language                                 : Spanish
    Service kind                             : Complete Main
    Default                                  : Yes
    Forced                                   : No
    Statistics Tags Issue                    : mkvmerge v15.0.0 ('Duel with the Devil') 64-bit 2018-02-27 20:28:12 / mkvmerge v15.0.0 ('Duel with the Devil') 64-bit 2018-02-27 20:28:12 / UTC 2018-02-24T09:29:19Z
    FromStats_BitRate                        : 192000
    FromStats_Duration                       : 02:14:36.768000000
    FromStats_FrameCount                     : 252399
    FromStats_StreamSize                     : 193842432

    Audio #2
    ID                                       : 3
    Format                                   : DTS
    Format/Info                              : Digital Theater Systems
    Mode                                     : 16
    Format settings, Endianness              : Big
    Codec ID                                 : A_DTS
    Duration                                 : 2 h 14 min
    Bit rate mode                            : Constant
    Bit rate                                 : 1 509 kb/s
    Channel(s)                               : 6 channels
    Channel positions                        : Front: L C R, Side: L R, LFE
    Sampling rate                            : 48.0 kHz
    Frame rate                               : 93.750 FPS (512 SPF)
    Bit depth                                : 24 bits
    Compression mode                         : Lossy
    Stream size                              : 1.42 GiB (14%)
    Language                                 : English
    Default                                  : No
    Forced                                   : No
    Statistics Tags Issue                    : mkvmerge v15.0.0 ('Duel with the Devil') 64-bit 2018-02-27 20:28:12 / mkvmerge v15.0.0 ('Duel with the Devil') 64-bit 2018-02-27 20:28:12 / UTC 2018-02-24T09:29:19Z
    FromStats_BitRate                        : 1509000
    FromStats_Duration                       : 02:14:36.736000000
    FromStats_FrameCount                     : 757194
    FromStats_StreamSize                     : 1523474328

    Text #1
    ID                                       : 4
    Format                                   : UTF-8
    Codec ID                                 : S_TEXT/UTF8
    Codec ID/Info                            : UTF-8 Plain Text
    Language                                 : Spanish
    Default                                  : No
    Forced                                   : No
    Statistics Tags Issue                    : mkvmerge v15.0.0 ('Duel with the Devil') 64-bit 2018-02-27 20:28:12 / mkvmerge v15.0.0 ('Duel with the Devil') 64-bit 2018-02-27 20:28:12 / UTC 2018-02-24T09:29:19Z
    FromStats_BitRate                        : 39
    FromStats_Duration                       : 02:08:03.482000000
    FromStats_FrameCount                     : 1258
    FromStats_StreamSize                     : 37999

    Text #2
    ID                                       : 5
    Format                                   : PGS
    Muxing mode                              : zlib
    Codec ID                                 : S_HDMV/PGS
    Codec ID/Info                            : Picture based subtitle format used on BDs/HD-DVDs
    Language                                 : Spanish
    Default                                  : No
    Forced                                   : No
    Statistics Tags Issue                    : mkvmerge v15.0.0 ('Duel with the Devil') 64-bit 2018-02-27 20:28:12 / mkvmerge v15.0.0 ('Duel with the Devil') 64-bit 2018-02-27 20:28:12 / UTC 2018-02-24T09:29:19Z
    FromStats_BitRate                        : 36150
    FromStats_Duration                       : 02:08:03.475000000
    FromStats_FrameCount                     : 2516
    FromStats_StreamSize                     : 34720097

    Menu
    00:00:00.000                             : :Chapter 1
    00:09:01.458                             : :Chapter 2
    00:20:58.382                             : :Chapter 3
    00:30:21.570                             : :Chapter 4
    00:39:54.851                             : :Chapter 5
    00:49:13.325                             : :Chapter 6
    01:00:20.450                             : :Chapter 7
    01:09:26.996                             : :Chapter 8
    01:19:47.032                             : :Chapter 9
    01:30:01.730                             : :Chapter 10
    01:39:53.029                             : :Chapter 11
    01:50:08.811                             : :Chapter 12
    02:00:09.869                             : :Chapter 13
    02:09:46.028                             : :Chapter 14

  • Peso: 10.3 GiB

Sinopsis

La vida monótona y rutinaria de una tranquila ama de casa que vive en una granja con su familia, se ve alterada con la llegada de un fotógrafo del National Geographic. Un verdadero amor y una pasión desconocida nacerán entre ellos.

Ficha técnica

Video trailer de la película

Enlaces de descarga

Rip de Bluray

Descargar Los puentes de Madison (1995) Full 1080p Latino




Aportes de DPeliculasHDmega la pass es:dpeliculashdmega.org Aportes de CinemaniaHD la pass es:cinemaniahdd.com

Películas relacionadas

  • Niños del hombre (2006) Full 1080p Latino

    2006
    Niños del hombre (2006) Full 1080p Latino

    0.0 1 h 49 min 2006

    Año 2027: el ser humano está al borde de la extinción: los hombres han perdido la capacidad de procrear...

    Director: Terry Needham

    Género: Acción

    Actores: Yolanda Vazquez

  • Amateur (2018) NF Webrip 1080p Latino

    2018
    Amateur (2018) NF Webrip 1080p Latino

    0.0 1h 36m 2018

    Un joven jugador de baloncesto se enfrenta a las dificultades de encajar en el nuevo equipo. Adaptación...

    Director: Ryan Koo

    Género: Drama

    Actores: Tekola Cornetet

  • Para atrapar al ladrón (1955) Full 1080p Latino

    1955
    Para atrapar al ladrón (1955) Full 1080p Latino

    0.0 1h 46m 1955

    A pesar de que John Robie "El Gato" (Cary Grant) es un ladrón de joyas reformado, se convierte en el...

    Director: Alfred Hitchcock

    Género: Crimen

    Actores: William 'Wee Willie' Davis

  • Si decido quedarme (2014) Full 1080p Latino

    2014
    Si decido quedarme (2014) Full 1080p Latino

    5.0 1 h 46 min 2014

    Mia es una joven de 17 años que parece tenerlo todo en la vida: una famila adorable, un novio que la...

    Director: R.J. Cutler

    Género: Drama

    Actores: William C. Vaughan

Comentarios 1
  • Rxdrigx17 - 27 febrero, 2018

    Muy buena Dracarys 😀